The text below is selected, press Ctrl+C to copy to your clipboard. (⌘+C on Mac) No line numbers will be copied.
Media Info

29th November 2016 09:39:39 AM | Views: 247
  1. Format                      : Matroska
  2. Format version              : Version 4 / Version 2
  3. File size                   : 1 003 MiB
  4. Duration                    : 2h 14mn
  5. Overall bit rate            : 1 042 Kbps
  6. Movie name                  : Suicide.Squad.2016.EXTENDED.720p.BRRip.HEVC.999MB.MkvCage
  7. Encoded date                : UTC 2016-11-29 09:36:36
  8. Writing application         : mkvmerge v7.9.0 ('Birds') 32bit
  9. Writing library             : libebml v1.3.1 + libmatroska v1.4.2
  10.  
  11. Video
  12. ID                          : 2
  13. Format                      : HEVC
  14. Format/Info                 : High Efficiency Video Coding
  15. Format profile              : [email protected]@Main
  16. Codec ID                    : V_MPEGH/ISO/HEVC
  17. Duration                    : 2h 14mn
  18. Bit rate                    : 940 Kbps
  19. Width                       : 1 280 pixels
  20. Height                      : 534 pixels
  21. Display aspect ratio        : 2.40:1
  22. Original display aspect rat : 2.40:1
  23. Frame rate mode             : Constant
  24. Frame rate                  : 23.976 (24000/1001) fps
  25. Color space                 : YUV
  26. Chroma subsampling          : 4:2:0
  27. Bit depth                   : 8 bits
  28. Bits/(Pixel*Frame)          : 0.057
  29. Stream size                 : 904 MiB (90%)
  30. Writing library             : x265 1.9:[Windows][GCC 4.9.0][64 bit] 8bit
  31. Encoding settings           : wpp / ctu=64 / min-cu-size=8 / max-tu-size=32 / tu-intra-depth=1 / tu-inter-depth=1 / me=1 / subme=2 / merange=57 / no-rect / no-amp / max-merge=2 / temporal-mvp / no-early-skip / rdpenalty=0 / no-tskip / no-tskip-fast / strong-intra-smoothing / no-lossless / no-cu-lossless / no-constrained-intra / fast-intra / open-gop / no-temporal-layers / interlace=0 / keyint=240 / min-keyint=24 / scenecut=40 / rc-lookahead=15 / lookahead-slices=0 / bframes=4 / bframe-bias=0 / b-adapt=0 / ref=3 / limit-refs=3 / no-limit-modes / weightp / no-weightb / aq-mode=1 / qg-size=32 / aq-strength=1.00 / cbqpoffs=0 / crqpoffs=0 / rd=2 / psy-rd=2.00 / rdoq-level=0 / psy-rdoq=0.00 / signhide / deblock / sao / no-sao-non-deblock / b-pyramid / cutree / no-intra-refresh / rc=2 / pass / bitrate=939 / qcomp=0.60 / qpmin=0 / qpmax=51 / qpstep=4 / cplxblur=20.0 / qblur=0.5 / ipratio=1.40 / pbratio=1.30
  32. Default                     : Yes
  33. Forced                      : No
  34. Color range                 : Limited
  35. Color primaries             : BT.709
  36. Transfer characteristics    : BT.709
  37. Matrix coefficients         : BT.709
  38.  
  39. Audio
  40. ID                          : 1
  41. Format                      : AAC
  42. Format/Info                 : Advanced Audio Codec
  43. Format profile              : HE-AAC / LC
  44. Codec ID                    : A_AAC
  45. Duration                    : 2h 14mn
  46. Bit rate                    : 99.9 Kbps
  47. Channel(s)                  : 2 channels
  48. Channel positions           : Front: L R
  49. Sampling rate               : 48.0 KHz / 24.0 KHz
  50. Frame rate                  : 23.438 fps (1024 spf)
  51. Compression mode            : Lossy
  52. Delay relative to video     : -52ms
  53. Stream size                 : 96.2 MiB (10%)
  54. Language                    : English
  55. Default                     : Yes
  56. Forced                      : No
  57.  
  58. Text
  59. ID                          : 3
  60. Format                      : UTF-8
  61. Codec ID                    : S_TEXT/UTF8
  62. Codec ID/Info               : UTF-8 Plain Text
  63. Duration                    : 2h 6mn
  64. Bit rate                    : 46 bps
  65. Count of elements           : 1507
  66. Stream size                 : 43.1 KiB (0%)
  67. Language                    : English
  68. Default                     : Yes
  69. Forced                      : No