The text below is selected, press Ctrl+C to copy to your clipboard. (⌘+C on Mac) No line numbers will be copied.
Media Info

3rd December 2016 02:50:06 PM | Views: 57
  1. Format                      : Matroska
  2. Format version              : Version 4 / Version 2
  3. File size                   : 1.61 GiB
  4. Duration                    : 1h 26mn
  5. Overall bit rate            : 2 650 Kbps
  6. Movie name                  : Storks.2016.1080p.BRRip.6CH.1.6GB.MkvCage
  7. Encoded date                : UTC 2016-12-03 14:43:19
  8. Writing application         : mkvmerge v7.9.0 ('Birds') 32bit
  9. Writing library             : libebml v1.3.1 + libmatroska v1.4.2
  10.  
  11. Video
  12. ID                          : 2
  13. Format                      : AVC
  14. Format/Info                 : Advanced Video Codec
  15. Format profile              : [email protected]
  16. Format settings, CABAC      : Yes
  17. Format settings, ReFrames   : 5 frames
  18. Codec ID                    : V_MPEG4/ISO/AVC
  19. Duration                    : 1h 26mn
  20. Bit rate                    : 2 458 Kbps
  21. Width                       : 1 920 pixels
  22. Height                      : 804 pixels
  23. Display aspect ratio        : 2.40:1
  24. Frame rate mode             : Constant
  25. Frame rate                  : 23.976 fps
  26. Color space                 : YUV
  27. Chroma subsampling          : 4:2:0
  28. Bit depth                   : 8 bits
  29. Scan type                   : Progressive
  30. Bits/(Pixel*Frame)          : 0.066
  31. Stream size                 : 1.49 GiB (93%)
  32. Writing library             : x264 core 142 r2479 dd79a61
  33. Encoding settings           : cabac=1 / ref=5 / deblock=1:0:0 / analyse=0x1:0x111 / me=umh / subme=8 / psy=1 / psy_rd=1.00:0.00 / mixed_ref=1 / me_range=16 / chroma_me=1 / trellis=1 / 8x8dct=0 / cqm=0 / deadzone=21,11 / fast_pskip=1 / chroma_qp_offset=-2 / threads=60 / lookahead_threads=6 / sliced_threads=0 / nr=0 / decimate=1 / interlaced=0 / bluray_compat=0 / constrained_intra=0 / bframes=3 / b_pyramid=2 / b_adapt=2 / b_bias=0 / direct=3 / weightb=1 / open_gop=0 / weightp=2 / keyint=240 / keyint_min=24 / scenecut=40 / intra_refresh=0 / rc_lookahead=50 / rc=2pass / mbtree=1 / bitrate=2458 / ratetol=1.0 / qcomp=0.60 / qpmin=0 / qpmax=69 / qpstep=4 / cplxblur=20.0 / qblur=0.5 / vbv_maxrate=50000 / vbv_bufsize=62500 / nal_hrd=none / filler=0 / ip_ratio=1.40 / aq=1:1.00
  34. Default                     : Yes
  35. Forced                      : No
  36. Color range                 : Limited
  37. Color primaries             : BT.709
  38. Transfer characteristics    : BT.709
  39. Matrix coefficients         : BT.709
  40.  
  41. Audio
  42. ID                          : 1
  43. Format                      : AAC
  44. Format/Info                 : Advanced Audio Codec
  45. Format profile              : HE-AAC / LC
  46. Codec ID                    : A_AAC
  47. Duration                    : 1h 26mn
  48. Bit rate                    : 192 Kbps
  49. Channel(s)                  : 6 channels
  50. Channel positions           : Front: L C R, Side: L R, LFE
  51. Sampling rate               : 48.0 KHz / 24.0 KHz
  52. Frame rate                  : 23.438 fps (1024 spf)
  53. Compression mode            : Lossy
  54. Delay relative to video     : -52ms
  55. Stream size                 : 118 MiB (7%)
  56. Language                    : English
  57. Default                     : Yes
  58. Forced                      : No
  59.  
  60. Text
  61. ID                          : 3
  62. Format                      : UTF-8
  63. Codec ID                    : S_TEXT/UTF8
  64. Codec ID/Info               : UTF-8 Plain Text
  65. Duration                    : 1h 20mn
  66. Bit rate                    : 71 bps
  67. Count of elements           : 1447
  68. Stream size                 : 42.3 KiB (0%)
  69. Language                    : English
  70. Default                     : Yes
  71. Forced                      : No