The text below is selected, press Ctrl+C to copy to your clipboard. (⌘+C on Mac) No line numbers will be copied.
Heat (1995) REMASTERED

14th February 2017 05:03:15 AM | Views: 69
  1. Format                                   : Matroska
  2. Format version                           : Version 4 / Version 2
  3. File size                                : 3.43 GiB
  4. Duration                                 : 2 h 50 min
  5. Overall bit rate                         : 2 887 kb/s
  6. Movie name                               : Heat.1995.REMASTERED.1080p.BRRip.6CH.MkvCage
  7. Encoded date                             : UTC 2017-02-14 04:48:58
  8. Writing application                      : mkvmerge v9.8.0 ('Kuglblids') 64bit
  9. Writing library                          : libebml v1.3.4 + libmatroska v1.4.5
  10.  
  11. Video
  12. ID                                       : 2
  13. Format                                   : AVC
  14. Format/Info                              : Advanced Video Codec
  15. Format profile                           : [email protected]
  16. Format settings, CABAC                   : Yes
  17. Format settings, ReFrames                : 5 frames
  18. Codec ID                                 : V_MPEG4/ISO/AVC
  19. Duration                                 : 2 h 50 min
  20. Bit rate                                 : 2 699 kb/s
  21. Width                                    : 1 920 pixels
  22. Height                                   : 800 pixels
  23. Display aspect ratio                     : 2.40:1
  24. Frame rate mode                          : Constant
  25. Frame rate                               : 23.976 (24000/1001) FPS
  26. Color space                              : YUV
  27. Chroma subsampling                       : 4:2:0
  28. Bit depth                                : 8 bits
  29. Scan type                                : Progressive
  30. Bits/(Pixel*Frame)                       : 0.073
  31. Stream size                              : 3.21 GiB (93%)
  32. Writing library                          : x264 core 133 r2334 a3ac64b
  33. Encoding settings                        : cabac=1 / ref=5 / deblock=1:0:0 / analyse=0x3:0x133 / me=umh / subme=10 / psy=1 / psy_rd=1.00:0.00 / mixed_ref=1 / me_range=24 / chroma_me=1 / trellis=2 / 8x8dct=1 / cqm=0 / deadzone=21,11 / fast_pskip=1 / chroma_qp_offset=-2 / threads=48 / lookahead_threads=5 / sliced_threads=0 / nr=0 / decimate=1 / interlaced=0 / bluray_compat=0 / constrained_intra=0 / bframes=6 / b_pyramid=2 / b_adapt=2 / b_bias=0 / direct=3 / weightb=1 / open_gop=0 / weightp=2 / keyint=240 / keyint_min=23 / scenecut=40 / intra_refresh=0 / rc_lookahead=60 / rc=2pass / mbtree=1 / bitrate=2699 / ratetol=1.0 / qcomp=0.60 / qpmin=10 / qpmax=51 / qpstep=4 / cplxblur=20.0 / qblur=0.5 / vbv_maxrate=62500 / vbv_bufsize=78125 / nal_hrd=none / ip_ratio=1.40 / aq=1:1.00
  34. Default                                  : Yes
  35. Forced                                   : No
  36.  
  37. Audio
  38. ID                                       : 1
  39. Format                                   : AAC
  40. Format/Info                              : Advanced Audio Codec
  41. Format profile                           : HE-AACv2 / HE-AAC / LC
  42. Codec ID                                 : A_AAC
  43. Duration                                 : 2 h 50 min
  44. Bit rate                                 : 188 kb/s
  45. Channel(s)                               : 6 channels
  46. Channel(s)_Original                      : 2 channels / 18 channels / 18 channels
  47. Channel positions                        : Front: L R / Front: C, Side: L C R, Back: 12, LFE= 2 / Front: C, Side: L C R, Back: 12, LFE= 2
  48. Sampling rate                            : 48.0 kHz / 48.0 kHz / 24.0 kHz
  49. Frame rate                               : 23.438 FPS (1024 spf)
  50. Compression mode                         : Lossy
  51. Delay relative to video                  : 31 ms
  52. Stream size                              : 229 MiB (6%)
  53. Language                                 : English
  54. Default                                  : Yes
  55. Forced                                   : No
  56.  
  57. Text
  58. ID                                       : 3
  59. Format                                   : UTF-8
  60. Codec ID                                 : S_TEXT/UTF8
  61. Codec ID/Info                            : UTF-8 Plain Text
  62. Duration                                 : 2 h 41 min
  63. Bit rate                                 : 48 b/s
  64. Count of elements                        : 1585
  65. Stream size                              : 56.9 KiB (0%)
  66. Language                                 : English
  67. Default                                  : Yes
  68. Forced                                   : No