>
The text below is selected, press Ctrl+C to copy to your clipboard. (⌘+C on Mac) No line numbers will be copied.
The Boy and the Beast...

12th June 2016 04:48:32 AM | Views: 24
  1. Format                      : Matroska
  2. Format version              : Version 4 / Version 2
  3. File size                   : 808 MiB
  4. Duration                    : 1h 59mn
  5. Overall bit rate            : 947 Kbps
  6. Movie name                  : MkvCage.com
  7. Encoded date                : UTC 2016-06-12 08:42:46
  8. Writing application         : mkvmerge v7.9.0 ('Birds') 32bit
  9. Writing library             : libebml v1.3.1 + libmatroska v1.4.2
  10.  
  11. Video
  12. ID                          : 5
  13. Format                      : HEVC
  14. Format/Info                 : High Efficiency Video Coding
  15. Format profile              : [email protected]@Main
  16. Codec ID                    : V_MPEGH/ISO/HEVC
  17. Duration                    : 1h 59mn
  18. Bit rate                    : 817 Kbps
  19. Width                       : 1 280 pixels
  20. Height                      : 720 pixels
  21. Display aspect ratio        : 16:9
  22. Frame rate mode             : Constant
  23. Frame rate                  : 23.976 (24000/1001) fps
  24. Color space                 : YUV
  25. Chroma subsampling          : 4:2:0
  26. Bit depth                   : 8 bits
  27. Bits/(Pixel*Frame)          : 0.037
  28. Stream size                 : 697 MiB (86%)
  29. Writing library             : x265 1.9:[Windows][GCC 4.9.0][64 bit] 8bit
  30. Encoding settings           : wpp / ctu=64 / min-cu-size=8 / max-tu-size=32 / tu-intra-depth=1 / tu-inter-depth=1 / me=1 / subme=1 / merange=57 / no-rect / no-amp / max-merge=2 / temporal-mvp / early-skip / rdpenalty=0 / no-tskip / no-tskip-fast / strong-intra-smoothing / no-lossless / no-cu-lossless / no-constrained-intra / fast-intra / open-gop / no-temporal-layers / interlace=0 / keyint=240 / min-keyint=24 / scenecut=40 / rc-lookahead=15 / lookahead-slices=4 / bframes=4 / bframe-bias=0 / b-adapt=0 / ref=2 / limit-refs=3 / no-limit-modes / weightp / no-weightb / aq-mode=1 / qg-size=32 / aq-strength=1.00 / cbqpoffs=0 / crqpoffs=0 / rd=2 / psy-rd=2.00 / rdoq-level=0 / psy-rdoq=0.00 / signhide / deblock / sao / no-sao-non-deblock / b-pyramid / cutree / no-intra-refresh / rc=2 / pass / bitrate=817 / qcomp=0.60 / qpmin=0 / qpmax=51 / qpstep=4 / cplxblur=20.0 / qblur=0.5 / ipratio=1.40 / pbratio=1.30
  31. Default                     : Yes
  32. Forced                      : No
  33. Color range                 : Limited
  34. Color primaries             : BT.709
  35. Transfer characteristics    : BT.709
  36. Matrix coefficients         : BT.709
  37.  
  38. Audio #1
  39. ID                          : 1
  40. Format                      : AAC
  41. Format/Info                 : Advanced Audio Codec
  42. Format profile              : HE-AAC / LC
  43. Codec ID                    : A_AAC
  44. Duration                    : 1h 59mn
  45. Bit rate                    : 63.9 Kbps
  46. Channel(s)                  : 2 channels
  47. Channel positions           : Front: L R
  48. Sampling rate               : 48.0 KHz / 24.0 KHz
  49. Frame rate                  : 23.438 fps (1024 spf)
  50. Compression mode            : Lossy
  51. Delay relative to video     : -52ms
  52. Stream size                 : 54.5 MiB (7%)
  53. Language                    : English
  54. Default                     : No
  55. Forced                      : No
  56.  
  57. Audio #2
  58. ID                          : 2
  59. Format                      : AAC
  60. Format/Info                 : Advanced Audio Codec
  61. Format profile              : HE-AAC / LC
  62. Codec ID                    : A_AAC
  63. Duration                    : 1h 59mn
  64. Bit rate                    : 63.9 Kbps
  65. Channel(s)                  : 2 channels
  66. Channel positions           : Front: L R
  67. Sampling rate               : 48.0 KHz / 24.0 KHz
  68. Frame rate                  : 23.438 fps (1024 spf)
  69. Compression mode            : Lossy
  70. Delay relative to video     : -52ms
  71. Stream size                 : 54.5 MiB (7%)
  72. Language                    : Japanese
  73. Default                     : Yes
  74. Forced                      : No
  75.  
  76. Text #1
  77. ID                          : 3
  78. Format                      : UTF-8
  79. Codec ID                    : S_TEXT/UTF8
  80. Codec ID/Info               : UTF-8 Plain Text
  81. Duration                    : 1h 57mn
  82. Bit rate                    : 58 bps
  83. Count of elements           : 1557
  84. Stream size                 : 50.6 KiB (0%)
  85. Title                       : forced
  86. Language                    : English
  87. Default                     : Yes
  88. Forced                      : Yes
  89.  
  90. Text #2
  91. ID                          : 4
  92. Format                      : UTF-8
  93. Codec ID                    : S_TEXT/UTF8
  94. Codec ID/Info               : UTF-8 Plain Text
  95. Duration                    : 1h 53mn
  96. Bit rate                    : 2 bps
  97. Count of elements           : 49
  98. Stream size                 : 1.78 KiB (0%)
  99. Title                       : English
  100. Language                    : English
  101. Default                     : No
  102. Forced                      : No