>
The text below is selected, press Ctrl+C to copy to your clipboard. (⌘+C on Mac) No line numbers will be copied.
I Saw The Light (2016)...

21st June 2016 10:57:15 AM
  1. Format                      : Matroska
  2. Format version              : Version 4 / Version 2
  3. File size                   : 952 MiB
  4. Duration                    : 2h 4mn
  5. Overall bit rate            : 1 073 Kbps
  6. Movie name                  : MkvCage.com
  7. Encoded date                : UTC 2016-06-21 14:52:40
  8. Writing application         : mkvmerge v7.9.0 ('Birds') 32bit
  9. Writing library             : libebml v1.3.1 + libmatroska v1.4.2
  10.  
  11. Video
  12. ID                          : 2
  13. Format                      : AVC
  14. Format/Info                 : Advanced Video Codec
  15. Format profile              : [email protected]
  16. Format settings, CABAC      : Yes
  17. Format settings, ReFrames   : 5 frames
  18. Codec ID                    : V_MPEG4/ISO/AVC
  19. Duration                    : 2h 4mn
  20. Bit rate                    : 1 009 Kbps
  21. Width                       : 1 280 pixels
  22. Height                      : 528 pixels
  23. Display aspect ratio        : 2.40:1
  24. Frame rate mode             : Constant
  25. Frame rate                  : 23.976 (24000/1001) fps
  26. Color space                 : YUV
  27. Chroma subsampling          : 4:2:0
  28. Bit depth                   : 8 bits
  29. Scan type                   : Progressive
  30. Bits/(Pixel*Frame)          : 0.062
  31. Stream size                 : 894 MiB (94%)
  32. Writing library             : x264 core 146 r2538 121396c
  33. Encoding settings           : cabac=1 / ref=5 / deblock=1:-1:-1 / analyse=0x3:0x113 / me=umh / subme=8 / psy=1 / psy_rd=1.00:0.00 / mixed_ref=1 / me_range=16 / chroma_me=1 / trellis=1 / 8x8dct=1 / cqm=0 / deadzone=21,11 / fast_pskip=1 / chroma_qp_offset=-2 / threads=60 / lookahead_threads=4 / sliced_threads=0 / nr=0 / decimate=1 / interlaced=0 / bluray_compat=0 / constrained_intra=0 / bframes=3 / b_pyramid=2 / b_adapt=2 / b_bias=0 / direct=3 / weightb=1 / open_gop=0 / weightp=2 / keyint=240 / keyint_min=23 / scenecut=40 / intra_refresh=0 / rc_lookahead=50 / rc=2pass / mbtree=1 / bitrate=1009 / ratetol=1.0 / qcomp=0.60 / qpmin=10 / qpmax=51 / qpstep=4 / cplxblur=20.0 / qblur=0.5 / vbv_maxrate=62500 / vbv_bufsize=78125 / nal_hrd=none / filler=0 / ip_ratio=1.40 / aq=1:1.00
  34. Default                     : Yes
  35. Forced                      : No
  36.  
  37. Audio
  38. ID                          : 1
  39. Format                      : AAC
  40. Format/Info                 : Advanced Audio Codec
  41. Format profile              : HE-AAC / LC
  42. Codec ID                    : A_AAC
  43. Duration                    : 2h 3mn
  44. Bit rate                    : 63.7 Kbps
  45. Channel(s)                  : 2 channels
  46. Channel positions           : Front: L R
  47. Sampling rate               : 48.0 KHz / 24.0 KHz
  48. Frame rate                  : 23.438 fps (1024 spf)
  49. Compression mode            : Lossy
  50. Delay relative to video     : 31ms
  51. Stream size                 : 56.4 MiB (6%)
  52. Language                    : English
  53. Default                     : Yes
  54. Forced                      : No