The text below is selected, press Ctrl+C to copy to your clipboard. (⌘+C on Mac) No line numbers will be copied.
Media Info

1st December 2017 03:07:27 AM | Views: 575
  1. Format                      : Matroska
  2. Format version              : Version 4 / Version 2
  3. File size                   : 553 MiB
  4. Duration                    : 58 min 40 s
  5. Overall bit rate            : 1 318 kb/s
  6. Encoded date                : UTC 2017-12-01 02:11:14
  7. Writing application         : mkvmerge v16.0.0 ('Protest') 64-bit
  8. Writing library             : libebml v1.3.5 + libmatroska v1.4.8
  9.  
  10. Video
  11. ID                          : 2
  12. Format                      : AVC
  13. Format/Info                 : Advanced Video Codec
  14. Format profile              : [email protected]
  15. Format settings, CABAC      : Yes
  16. Format settings, RefFrames  : 9 frames
  17. Codec ID                    : V_MPEG4/ISO/AVC
  18. Duration                    : 58 min 40 s
  19. Bit rate                    : 1 214 kb/s
  20. Width                       : 1 280 pixels
  21. Height                      : 720 pixels
  22. Display aspect ratio        : 16:9
  23. Frame rate mode             : Constant
  24. Frame rate                  : 23.976 (24000/1001) FPS
  25. Color space                 : YUV
  26. Chroma subsampling          : 4:2:0
  27. Bit depth                   : 8 bits
  28. Scan type                   : Progressive
  29. Bits/(Pixel*Frame)          : 0.055
  30. Stream size                 : 510 MiB (92%)
  31. Writing library             : x264 core 133 r2334 a3ac64b
  32. Encoding settings           : cabac=1 / ref=9 / deblock=1:-1:-1 / analyse=0x3:0x133 / me=umh / subme=10 / psy=1 / psy_rd=1.00:0.00 / mixed_ref=1 / me_range=24 / chroma_me=1 / trellis=2 / 8x8dct=1 / cqm=0 / deadzone=21,11 / fast_pskip=1 / chroma_qp_offset=-2 / threads=48 / lookahead_threads=5 / sliced_threads=0 / nr=0 / decimate=1 / interlaced=0 / bluray_compat=0 / constrained_intra=0 / bframes=6 / b_pyramid=2 / b_adapt=2 / b_bias=0 / direct=3 / weightb=1 / open_gop=0 / weightp=2 / keyint=240 / keyint_min=23 / scenecut=40 / intra_refresh=0 / rc_lookahead=60 / rc=2pass / mbtree=1 / bitrate=1214 / ratetol=1.0 / qcomp=0.60 / qpmin=10 / qpmax=51 / qpstep=4 / cplxblur=20.0 / qblur=0.5 / vbv_maxrate=62500 / vbv_bufsize=78125 / nal_hrd=none / ip_ratio=1.40 / aq=1:1.00
  33. Default                     : Yes
  34. Forced                      : No
  35.  
  36. Audio
  37. ID                          : 3
  38. Format                      : AAC
  39. Format/Info                 : Advanced Audio Codec
  40. Format profile              : HE-AAC / LC
  41. Codec ID                    : A_AAC
  42. Duration                    : 58 min 40 s
  43. Bit rate                    : 100.0 kb/s
  44. Channel(s)                  : 2 channels
  45. Channel positions           : Front: L R
  46. Sampling rate               : 48.0 kHz / 24.0 kHz
  47. Frame rate                  : 23.438 FPS (1024 SPF)
  48. Compression mode            : Lossy
  49. Delay relative to video     : 31 ms
  50. Stream size                 : 42.0 MiB (8%)
  51. Language                    : English
  52. Default                     : Yes
  53. Forced                      : No
  54.  
  55. Text
  56. ID                          : 1
  57. Format                      : UTF-8
  58. Codec ID                    : S_TEXT/UTF8
  59. Codec ID/Info               : UTF-8 Plain Text
  60. Duration                    : 56 min 47 s
  61. Bit rate                    : 50 b/s
  62. Count of elements           : 651
  63. Stream size                 : 20.9 KiB (0%)
  64. Language                    : English
  65. Default                     : Yes
  66. Forced                      : No