The text below is selected, press Ctrl+C to copy to your clipboard. (⌘+C on Mac) No line numbers will be copied.
Media info

23rd January 2018 01:47:31 AM | Views: 43
  1. Format                      : Matroska
  2. Format version              : Version 4 / Version 2
  3. File size                   : 753 MiB
  4. Duration                    : 1 h 55 min
  5. Overall bit rate            : 908 kb/s
  6. Movie name                  : The.Post.2017.DVDSCR.750MB.MkvCage
  7. Encoded date                : UTC 2018-01-23 01:44:54
  8. Writing application         : mkvmerge v16.0.0 ('Protest') 64-bit
  9. Writing library             : libebml v1.3.5 + libmatroska v1.4.8
  10.  
  11. Video
  12. ID                          : 2
  13. Format                      : AVC
  14. Format/Info                 : Advanced Video Codec
  15. Format profile              : [email protected]
  16. Format settings, CABAC      : Yes
  17. Format settings, RefFrames  : 8 frames
  18. Codec ID                    : V_MPEG4/ISO/AVC
  19. Duration                    : 1 h 55 min
  20. Bit rate                    : 842 kb/s
  21. Width                       : 720 pixels
  22. Height                      : 384 pixels
  23. Display aspect ratio        : 1.85:1
  24. Frame rate mode             : Constant
  25. Frame rate                  : 30.000 FPS
  26. Color space                 : YUV
  27. Chroma subsampling          : 4:2:0
  28. Bit depth                   : 8 bits
  29. Scan type                   : Progressive
  30. Bits/(Pixel*Frame)          : 0.102
  31. Stream size                 : 698 MiB (93%)
  32. Title                       : MkvCage
  33. Writing library             : x264 core 148 r2708 86b7198
  34. Encoding settings           : cabac=1 / ref=8 / deblock=1:0:0 / analyse=0x3:0x133 / me=umh / subme=9 / psy=1 / psy_rd=1.00:0.00 / mixed_ref=1 / me_range=16 / chroma_me=1 / trellis=2 / 8x8dct=1 / cqm=0 / deadzone=21,11 / fast_pskip=1 / chroma_qp_offset=-2 / threads=12 / lookahead_threads=1 / sliced_threads=0 / nr=0 / decimate=1 / interlaced=0 / bluray_compat=0 / constrained_intra=0 / bframes=3 / b_pyramid=2 / b_adapt=2 / b_bias=0 / direct=3 / weightb=1 / open_gop=0 / weightp=2 / keyint=300 / keyint_min=30 / scenecut=40 / intra_refresh=0 / rc_lookahead=60 / rc=2pass / mbtree=1 / bitrate=842 / ratetol=1.0 / qcomp=0.60 / qpmin=0 / qpmax=69 / qpstep=4 / cplxblur=20.0 / qblur=0.5 / vbv_maxrate=62500 / vbv_bufsize=78125 / nal_hrd=none / filler=0 / ip_ratio=1.40 / aq=1:1.00
  35. Default                     : Yes
  36. Forced                      : No
  37. Color range                 : Limited
  38. Color primaries             : BT.601 NTSC
  39. Transfer characteristics    : BT.709
  40. Matrix coefficients         : BT.601
  41.  
  42. Audio
  43. ID                          : 1
  44. Format                      : AAC
  45. Format/Info                 : Advanced Audio Codec
  46. Format profile              : HE-AAC / LC
  47. Codec ID                    : A_AAC
  48. Duration                    : 1 h 55 min
  49. Bit rate                    : 64.0 kb/s
  50. Channel(s)                  : 2 channels
  51. Channel positions           : Front: L R
  52. Sampling rate               : 48.0 kHz / 24.0 kHz
  53. Frame rate                  : 23.438 FPS (1024 SPF)
  54. Compression mode            : Lossy
  55. Delay relative to video     : 31 ms
  56. Stream size                 : 53.0 MiB (7%)
  57. Language                    : English
  58. Default                     : Yes
  59. Forced                      : No