>
Media info

13th February 2018 05:05:59 AM
| |
  1. Format                      : Matroska
  2. Format version              : Version 4 / Version 2
  3. File size                   : 2.25 GiB
  4. Duration                    : 2 h 0 min
  5. Overall bit rate            : 2 685 kb/s
  6. Movie name                  : Justice.League.2017.1080p.WEB-DL.AC3.6CH.MkvCage
  7. Encoded date                : UTC 2018-02-13 04:55:50
  8. Writing application         : mkvmerge v16.0.0 ('Protest') 64-bit
  9. Writing library             : libebml v1.3.5 + libmatroska v1.4.8
  10.  
  11. Video
  12. ID                          : 2
  13. Format                      : AVC
  14. Format/Info                 : Advanced Video Codec
  15. Format profile              : [email protected]
  16. Format settings, CABAC      : Yes
  17. Format settings, RefFrames  : 4 frames
  18. Codec ID                    : V_MPEG4/ISO/AVC
  19. Duration                    : 2 h 0 min
  20. Bit rate                    : 2 300 kb/s
  21. Width                       : 1 920 pixels
  22. Height                      : 1 080 pixels
  23. Display aspect ratio        : 16:9
  24. Frame rate mode             : Constant
  25. Frame rate                  : 23.976 (24000/1001) FPS
  26. Color space                 : YUV
  27. Chroma subsampling          : 4:2:0
  28. Bit depth                   : 8 bits
  29. Scan type                   : Progressive
  30. Bits/(Pixel*Frame)          : 0.046
  31. Stream size                 : 1.93 GiB (86%)
  32. Writing library             : x264 core 148 r2708 86b7198
  33. Encoding settings           : cabac=1 / ref=4 / deblock=1:0:0 / analyse=0x3:0x133 / me=umh / subme=9 / psy=1 / psy_rd=1.00:0.00 / mixed_ref=1 / me_range=16 / chroma_me=1 / trellis=2 / 8x8dct=1 / cqm=0 / deadzone=21,11 / fast_pskip=1 / chroma_qp_offset=-2 / threads=34 / lookahead_threads=2 / sliced_threads=0 / nr=0 / decimate=1 / interlaced=0 / bluray_compat=0 / constrained_intra=0 / bframes=3 / b_pyramid=2 / b_adapt=2 / b_bias=0 / direct=3 / weightb=1 / open_gop=0 / weightp=2 / keyint=240 / keyint_min=24 / scenecut=40 / intra_refresh=0 / rc_lookahead=60 / rc=2pass / mbtree=1 / bitrate=2300 / ratetol=1.0 / qcomp=0.60 / qpmin=0 / qpmax=69 / qpstep=4 / cplxblur=20.0 / qblur=0.5 / vbv_maxrate=62500 / vbv_bufsize=78125 / nal_hrd=none / filler=0 / ip_ratio=1.40 / aq=1:1.00
  34. Default                     : Yes
  35. Forced                      : No
  36. Color range                 : Limited
  37. Color primaries             : BT.709
  38. Transfer characteristics    : BT.709
  39. Matrix coefficients         : BT.709
  40.  
  41. Audio
  42. ID                          : 3
  43. Format                      : AC-3
  44. Format/Info                 : Audio Coding 3
  45. Format settings, Endianness : Big
  46. Codec ID                    : A_AC3
  47. Duration                    : 2 h 0 min
  48. Bit rate mode               : Constant
  49. Bit rate                    : 384 kb/s
  50. Channel(s)                  : 6 channels
  51. Channel positions           : Front: L C R, Side: L R, LFE
  52. Sampling rate               : 48.0 kHz
  53. Frame rate                  : 31.250 FPS (1536 SPF)
  54. Bit depth                   : 16 bits
  55. Compression mode            : Lossy
  56. Stream size                 : 330 MiB (14%)
  57. Language                    : English
  58. Service kind                : Complete Main
  59. Default                     : Yes
  60. Forced                      : No
  61.  
  62. Text
  63. ID                          : 1
  64. Format                      : UTF-8
  65. Codec ID                    : S_TEXT/UTF8
  66. Codec ID/Info               : UTF-8 Plain Text
  67. Duration                    : 1 h 49 min
  68. Bit rate                    : 43 b/s
  69. Count of elements           : 1280
  70. Stream size                 : 35.3 KiB (0%)
  71. Language                    : English
  72. Default                     : Yes
  73. Forced                      : No
  74.  
  75. Menu
  76. 00:00:00.000                : :1
  77. 00:10:56.030                : :2
  78. 00:19:16.072                : :3
  79. 00:30:41.006                : :4
  80. 00:40:19.000                : :5
  81. 00:49:56.035                : :6
  82. 01:01:26.057                : :7
  83. 01:09:41.052                : :8
  84. 01:19:18.003                : :9
  85. 01:30:34.012                : :10
  86. 01:40:33.069                : :11
  87. 01:48:42.057                : :12