>
Media info

13th February 2018 10:19:11 AM
| |
  1. Format                      : Matroska
  2. Format version              : Version 4 / Version 2
  3. File size                   : 904 MiB
  4. Duration                    : 1 h 55 min
  5. Overall bit rate            : 1 091 kb/s
  6. Movie name                  : Three Billboards Outside Ebbing Missouri.2017.720p.WEB-DL.900MB.MkvCage.com
  7. Encoded date                : UTC 2018-02-13 10:17:49
  8. Writing application         : mkvmerge v9.7.1 ('Pandemonium') 64bit
  9. Writing library             : libebml v1.3.4 + libmatroska v1.4.5
  10.  
  11. Video
  12. ID                          : 2
  13. Format                      : AVC
  14. Format/Info                 : Advanced Video Codec
  15. Format profile              : [email protected]
  16. Format settings, CABAC      : Yes
  17. Format settings, RefFrames  : 12 frames
  18. Codec ID                    : V_MPEG4/ISO/AVC
  19. Duration                    : 1 h 55 min
  20. Bit rate                    : 1 026 kb/s
  21. Width                       : 1 280 pixels
  22. Height                      : 534 pixels
  23. Display aspect ratio        : 2.40:1
  24. Frame rate mode             : Constant
  25. Frame rate                  : 24.000 FPS
  26. Color space                 : YUV
  27. Chroma subsampling          : 4:2:0
  28. Bit depth                   : 8 bits
  29. Scan type                   : Progressive
  30. Bits/(Pixel*Frame)          : 0.063
  31. Stream size                 : 850 MiB (94%)
  32. Writing library             : x264 core 148 r2708 86b7198
  33. Encoding settings           : cabac=1 / ref=12 / deblock=1:0:0 / analyse=0x3:0x133 / me=umh / subme=10 / psy=1 / psy_rd=1.00:0.00 / mixed_ref=1 / me_range=24 / chroma_me=1 / trellis=2 / 8x8dct=1 / cqm=0 / deadzone=21,11 / fast_pskip=1 / chroma_qp_offset=-2 / threads=17 / lookahead_threads=2 / sliced_threads=0 / nr=0 / decimate=1 / interlaced=0 / bluray_compat=0 / constrained_intra=0 / bframes=8 / b_pyramid=2 / b_adapt=2 / b_bias=0 / direct=3 / weightb=1 / open_gop=0 / weightp=2 / keyint=240 / keyint_min=24 / scenecut=40 / intra_refresh=0 / rc_lookahead=60 / rc=2pass / mbtree=1 / bitrate=1026 / ratetol=1.0 / qcomp=0.60 / qpmin=0 / qpmax=69 / qpstep=4 / cplxblur=20.0 / qblur=0.5 / vbv_maxrate=62500 / vbv_bufsize=78125 / nal_hrd=none / filler=0 / ip_ratio=1.40 / aq=1:1.00
  34. Default                     : Yes
  35. Forced                      : No
  36. Color range                 : Limited
  37. Color primaries             : BT.709
  38. Transfer characteristics    : BT.709
  39. Matrix coefficients         : BT.709
  40.  
  41. Audio
  42. ID                          : 1
  43. Format                      : AAC
  44. Format/Info                 : Advanced Audio Codec
  45. Format profile              : HE-AAC / LC
  46. Codec ID                    : A_AAC
  47. Duration                    : 1 h 55 min
  48. Bit rate                    : 64.0 kb/s
  49. Channel(s)                  : 2 channels
  50. Channel positions           : Front: L R
  51. Sampling rate               : 48.0 kHz / 24.0 kHz
  52. Frame rate                  : 23.438 FPS (1024 SPF)
  53. Compression mode            : Lossy
  54. Delay relative to video     : 31 ms
  55. Stream size                 : 52.8 MiB (6%)
  56. Language                    : English
  57. Default                     : Yes
  58. Forced                      : No
  59.  
  60. Menu
  61. 00:00:00.000                : :Chapter 1
  62. 00:05:42.125                : :Chapter 2
  63. 00:08:56.917                : :Chapter 3
  64. 00:12:50.042                : :Chapter 4
  65. 00:19:46.667                : :Chapter 5
  66. 00:23:43.542                : :Chapter 6
  67. 00:27:36.375                : :Chapter 7
  68. 00:31:35.792                : :Chapter 8
  69. 00:35:08.708                : :Chapter 9
  70. 00:40:54.833                : :Chapter 10
  71. 00:44:35.708                : :Chapter 11
  72. 00:49:18.792                : :Chapter 12
  73. 00:55:35.917                : :Chapter 13
  74. 00:59:56.125                : :Chapter 14
  75. 01:04:09.875                : :Chapter 15
  76. 01:10:55.292                : :Chapter 16
  77. 01:15:36.708                : :Chapter 17
  78. 01:23:08.750                : :Chapter 18
  79. 01:27:24.500                : :Chapter 19
  80. 01:35:49.708                : :Chapter 20
  81. 01:40:32.708                : :Chapter 21
  82. 01:44:02.208                : :Chapter 22
  83. 01:46:56.917                : :Chapter 23
  84. 01:49:55.042                : :Chapter 24