>
Media info

13th February 2018 11:25:09 AM
| |
  1. Format                      : Matroska
  2. Format version              : Version 4 / Version 2
  3. File size                   : 803 MiB
  4. Duration                    : 1 h 42 min
  5. Overall bit rate            : 1 101 kb/s
  6. Movie name                  : Defective.2017.720p.WEB-DL.800MB.MkvCage.com
  7. Encoded date                : UTC 2018-02-13 11:19:43
  8. Writing application         : mkvmerge v16.0.0 ('Protest') 64-bit
  9. Writing library             : libebml v1.3.5 + libmatroska v1.4.8
  10.  
  11. Video
  12. ID                          : 2
  13. Format                      : AVC
  14. Format/Info                 : Advanced Video Codec
  15. Format profile              : [email protected]
  16. Format settings, CABAC      : Yes
  17. Format settings, RefFrames  : 8 frames
  18. Codec ID                    : V_MPEG4/ISO/AVC
  19. Duration                    : 1 h 42 min
  20. Bit rate                    : 1 035 kb/s
  21. Width                       : 1 280 pixels
  22. Height                      : 688 pixels
  23. Display aspect ratio        : 1.85:1
  24. Frame rate mode             : Constant
  25. Frame rate                  : 23.976 (24000/1001) FPS
  26. Color space                 : YUV
  27. Chroma subsampling          : 4:2:0
  28. Bit depth                   : 8 bits
  29. Scan type                   : Progressive
  30. Bits/(Pixel*Frame)          : 0.049
  31. Stream size                 : 755 MiB (94%)
  32. Writing library             : x264 core 148 r2708 86b7198
  33. Encoding settings           : cabac=1 / ref=8 / deblock=1:0:0 / analyse=0x3:0x133 / me=umh / subme=9 / psy=1 / psy_rd=1.00:0.00 / mixed_ref=1 / me_range=16 / chroma_me=1 / trellis=2 / 8x8dct=1 / cqm=0 / deadzone=21,11 / fast_pskip=1 / chroma_qp_offset=-2 / threads=21 / lookahead_threads=1 / sliced_threads=0 / nr=0 / decimate=1 / interlaced=0 / bluray_compat=0 / constrained_intra=0 / bframes=3 / b_pyramid=2 / b_adapt=2 / b_bias=0 / direct=3 / weightb=1 / open_gop=0 / weightp=2 / keyint=240 / keyint_min=24 / scenecut=40 / intra_refresh=0 / rc_lookahead=60 / rc=2pass / mbtree=1 / bitrate=1035 / ratetol=1.0 / qcomp=0.60 / qpmin=0 / qpmax=69 / qpstep=4 / cplxblur=20.0 / qblur=0.5 / vbv_maxrate=62500 / vbv_bufsize=78125 / nal_hrd=none / filler=0 / ip_ratio=1.40 / aq=1:1.00
  34. Default                     : Yes
  35. Forced                      : No
  36. Color range                 : Limited
  37. Color primaries             : BT.709
  38. Transfer characteristics    : BT.709
  39. Matrix coefficients         : BT.709
  40.  
  41. Audio
  42. ID                          : 1
  43. Format                      : AAC
  44. Format/Info                 : Advanced Audio Codec
  45. Format profile              : HE-AAC / LC
  46. Codec ID                    : A_AAC
  47. Duration                    : 1 h 42 min
  48. Bit rate                    : 64.0 kb/s
  49. Channel(s)                  : 2 channels
  50. Channel positions           : Front: L R
  51. Sampling rate               : 48.0 kHz / 24.0 kHz
  52. Frame rate                  : 23.438 FPS (1024 SPF)
  53. Compression mode            : Lossy
  54. Delay relative to video     : 31 ms
  55. Stream size                 : 46.7 MiB (6%)
  56. Language                    : English
  57. Default                     : Yes
  58. Forced                      : No
  59.  
  60. Text
  61. ID                          : 3
  62. Format                      : UTF-8
  63. Codec ID                    : S_TEXT/UTF8
  64. Codec ID/Info               : UTF-8 Plain Text
  65. Duration                    : 1 h 37 min
  66. Bit rate                    : 43 b/s
  67. Count of elements           : 1087
  68. Stream size                 : 30.8 KiB (0%)
  69. Language                    : English
  70. Default                     : Yes
  71. Forced                      : No
  72.  
  73. Menu
  74. 00:00:00.000                : :1
  75. 00:10:45.645                : :2
  76. 00:18:43.122                : :3
  77. 00:29:07.579                : :4
  78. 00:39:53.266                : :5
  79. 00:52:36.612                : :6
  80. 01:05:41.646                : :7
  81. 01:19:33.727                : :8
  82. 01:27:04.177                : :9
  83. 01:38:16.391                : :10