>
Media info

14th February 2018 03:31:54 AM
| |
  1. Format                      : Matroska
  2. Format version              : Version 4 / Version 2
  3. File size                   : 852 MiB
  4. Duration                    : 1 h 30 min
  5. Overall bit rate            : 1 311 kb/s
  6. Movie name                  : Just.Getting.Started.2017.720p.BRRip.850MB.MkvCage.com
  7. Encoded date                : UTC 2018-02-14 03:29:58
  8. Writing application         : mkvmerge v16.0.0 ('Protest') 64-bit
  9. Writing library             : libebml v1.3.5 + libmatroska v1.4.8
  10.  
  11. Video
  12. ID                          : 2
  13. Format                      : AVC
  14. Format/Info                 : Advanced Video Codec
  15. Format profile              : [email protected]
  16. Format settings, CABAC      : Yes
  17. Format settings, RefFrames  : 9 frames
  18. Codec ID                    : V_MPEG4/ISO/AVC
  19. Duration                    : 1 h 30 min
  20. Bit rate                    : 1 209 kb/s
  21. Width                       : 1 280 pixels
  22. Height                      : 536 pixels
  23. Display aspect ratio        : 2.40:1
  24. Frame rate mode             : Constant
  25. Frame rate                  : 23.976 (24000/1001) FPS
  26. Color space                 : YUV
  27. Chroma subsampling          : 4:2:0
  28. Bit depth                   : 8 bits
  29. Scan type                   : Progressive
  30. Bits/(Pixel*Frame)          : 0.073
  31. Stream size                 : 786 MiB (92%)
  32. Writing library             : x264 core 133 r2334 a3ac64b
  33. Encoding settings           : cabac=1 / ref=9 / deblock=1:0:0 / analyse=0x3:0x133 / me=umh / subme=10 / psy=1 / psy_rd=1.00:0.00 / mixed_ref=1 / me_range=24 / chroma_me=1 / trellis=2 / 8x8dct=1 / cqm=0 / deadzone=21,11 / fast_pskip=1 / chroma_qp_offset=-2 / threads=48 / lookahead_threads=4 / sliced_threads=0 / nr=0 / decimate=1 / interlaced=0 / bluray_compat=0 / constrained_intra=0 / bframes=6 / b_pyramid=2 / b_adapt=2 / b_bias=0 / direct=3 / weightb=1 / open_gop=0 / weightp=2 / keyint=240 / keyint_min=23 / scenecut=40 / intra_refresh=0 / rc_lookahead=60 / rc=2pass / mbtree=1 / bitrate=1209 / ratetol=1.0 / qcomp=0.60 / qpmin=0 / qpmax=69 / qpstep=4 / cplxblur=20.0 / qblur=0.5 / vbv_maxrate=62500 / vbv_bufsize=78125 / nal_hrd=none / ip_ratio=1.40 / aq=1:1.00
  34. Default                     : Yes
  35. Forced                      : No
  36.  
  37. Audio
  38. ID                          : 1
  39. Format                      : AAC
  40. Format/Info                 : Advanced Audio Codec
  41. Format profile              : HE-AAC / LC
  42. Codec ID                    : A_AAC
  43. Duration                    : 1 h 30 min
  44. Bit rate                    : 100.0 kb/s
  45. Channel(s)                  : 2 channels
  46. Channel positions           : Front: L R
  47. Sampling rate               : 48.0 kHz / 24.0 kHz
  48. Frame rate                  : 23.438 FPS (1024 SPF)
  49. Compression mode            : Lossy
  50. Delay relative to video     : 31 ms
  51. Stream size                 : 65.0 MiB (8%)
  52. Language                    : English
  53. Default                     : Yes
  54. Forced                      : No
  55.  
  56. Text
  57. ID                          : 3
  58. Format                      : UTF-8
  59. Codec ID                    : S_TEXT/UTF8
  60. Codec ID/Info               : UTF-8 Plain Text
  61. Duration                    : 1 h 30 min
  62. Bit rate                    : 84 b/s
  63. Count of elements           : 1702
  64. Stream size                 : 56.3 KiB (0%)
  65. Language                    : English
  66. Default                     : Yes
  67. Forced                      : No
  68.  
  69. Menu
  70. 00:00:00.000                : en:00:00:00.000
  71. 00:06:37.647                : en:00:06:37.647
  72. 00:11:13.506                : en:00:11:13.506
  73. 00:15:24.132                : en:00:15:24.132
  74. 00:22:28.722                : en:00:22:28.722
  75. 00:28:59.196                : en:00:28:59.196
  76. 00:34:12.467                : en:00:34:12.467
  77. 00:40:40.647                : en:00:40:40.647
  78. 00:49:58.495                : en:00:49:58.495
  79. 00:54:15.377                : en:00:54:15.377
  80. 01:00:56.278                : en:01:00:56.278
  81. 01:05:43.022                : en:01:05:43.022
  82. 01:12:51.367                : en:01:12:51.367
  83. 01:18:13.898                : en:01:18:13.898
  84. 01:22:24.273                : en:01:22:24.273
  85. 01:25:26.788                : en:01:25:26.788