>
The text below is selected, press Ctrl+C to copy to your clipboard. (⌘+C on Mac) No line numbers will be copied.
Gotham S02E20 720p HDTV HEVC...

9th May 2016 10:34:34 PM
  1. Format                      : Matroska
  2. Format version              : Version 4 / Version 2
  3. File size                   : 208 MiB
  4. Duration                    : 43mn 39s
  5. Overall bit rate            : 666 Kbps
  6. Movie name                  : MkvCage.com
  7. Encoded date                : UTC 2016-05-10 02:31:39
  8. Writing application         : mkvmerge v7.9.0 ('Birds') 32bit
  9. Writing library             : libebml v1.3.1 + libmatroska v1.4.2
  10.  
  11. Video
  12. ID                          : 2
  13. Format                      : HEVC
  14. Format/Info                 : High Efficiency Video Coding
  15. Format profile              : [email protected]@Main
  16. Codec ID                    : V_MPEGH/ISO/HEVC
  17. Duration                    : 43mn 39s
  18. Bit rate                    : 600 Kbps
  19. Width                       : 1 260 pixels
  20. Height                      : 720 pixels
  21. Display aspect ratio        : 16:9
  22. Frame rate mode             : Constant
  23. Frame rate                  : 23.976 (24000/1001) fps
  24. Color space                 : YUV
  25. Chroma subsampling          : 4:2:0
  26. Bit depth                   : 8 bits
  27. Bits/(Pixel*Frame)          : 0.028
  28. Stream size                 : 187 MiB (90%)
  29. Writing library             : x265 1.9:[Windows][GCC 4.9.0][64 bit] 8bit
  30. Encoding settings           : wpp / ctu=64 / min-cu-size=8 / max-tu-size=32 / tu-intra-depth=1 / tu-inter-depth=1 / me=1 / subme=2 / merange=57 / no-rect / no-amp / max-merge=2 / temporal-mvp / early-skip / rdpenalty=0 / no-tskip / no-tskip-fast / strong-intra-smoothing / no-lossless / no-cu-lossless / no-constrained-intra / fast-intra / open-gop / no-temporal-layers / interlace=0 / keyint=240 / min-keyint=24 / scenecut=40 / rc-lookahead=15 / lookahead-slices=4 / bframes=4 / bframe-bias=0 / b-adapt=0 / ref=2 / limit-refs=3 / no-limit-modes / weightp / no-weightb / aq-mode=1 / qg-size=32 / aq-strength=1.00 / cbqpoffs=0 / crqpoffs=0 / rd=2 / psy-rd=2.00 / rdoq-level=0 / psy-rdoq=0.00 / signhide / deblock / sao / no-sao-non-deblock / b-pyramid / cutree / no-intra-refresh / rc=2 / pass / bitrate=600 / qcomp=0.60 / qpmin=0 / qpmax=51 / qpstep=4 / cplxblur=20.0 / qblur=0.5 / ipratio=1.40 / pbratio=1.30
  31. Default                     : Yes
  32. Forced                      : No
  33. Color range                 : Limited
  34. Color primaries             : BT.709
  35. Transfer characteristics    : BT.709
  36. Matrix coefficients         : BT.709
  37.  
  38. Audio
  39. ID                          : 1
  40. Format                      : AAC
  41. Format/Info                 : Advanced Audio Codec
  42. Format profile              : HE-AAC / LC
  43. Codec ID                    : A_AAC
  44. Duration                    : 43mn 38s
  45. Bit rate                    : 64.0 Kbps
  46. Channel(s)                  : 2 channels
  47. Channel positions           : Front: L R
  48. Sampling rate               : 48.0 KHz / 24.0 KHz
  49. Frame rate                  : 23.438 fps (1024 spf)
  50. Compression mode            : Lossy
  51. Delay relative to video     : -52ms
  52. Stream size                 : 20.0 MiB (10%)
  53. Language                    : English
  54. Default                     : Yes
  55. Forced                      : No