The text below is selected, press Ctrl+C to copy to your clipboard. (⌘+C on Mac) No line numbers will be copied.
Media info

20th February 2018 04:14:44 AM | Views: 490
  1. Format                      : Matroska
  2. Format version              : Version 4 / Version 2
  3. File size                   : 1.02 GiB
  4. Duration                    : 2 h 14 min
  5. Overall bit rate            : 1 082 kb/s
  6. Movie name                  : FullMetal.Alchemist.2017.720p.WEBRip.1GB.MkvCage.com
  7. Encoded date                : UTC 2018-02-20 04:11:15
  8. Writing application         : mkvmerge v20.0.0 ('I Am The Sun') 64-bit
  9. Writing library             : libebml v1.3.5 + libmatroska v1.4.8
  10.  
  11. Video
  12. ID                          : 7
  13. Format                      : AVC
  14. Format/Info                 : Advanced Video Codec
  15. Format profile              : [email protected]
  16. Format settings, CABAC      : Yes
  17. Format settings, RefFrames  : 8 frames
  18. Codec ID                    : V_MPEG4/ISO/AVC
  19. Duration                    : 2 h 14 min
  20. Bit rate                    : 1 016 kb/s
  21. Width                       : 1 280 pixels
  22. Height                      : 544 pixels
  23. Display aspect ratio        : 2.35:1
  24. Frame rate mode             : Constant
  25. Frame rate                  : 23.976 (24000/1001) FPS
  26. Color space                 : YUV
  27. Chroma subsampling          : 4:2:0
  28. Bit depth                   : 8 bits
  29. Scan type                   : Progressive
  30. Bits/(Pixel*Frame)          : 0.061
  31. Stream size                 : 977 MiB (94%)
  32. Writing library             : x264 core 148 r2708 86b7198
  33. Encoding settings           : cabac=1 / ref=8 / deblock=1:0:0 / analyse=0x3:0x133 / me=umh / subme=9 / psy=1 / psy_rd=1.00:0.00 / mixed_ref=1 / me_range=16 / chroma_me=1 / trellis=2 / 8x8dct=1 / cqm=0 / deadzone=21,11 / fast_pskip=1 / chroma_qp_offset=-2 / threads=17 / lookahead_threads=1 / sliced_threads=0 / nr=0 / decimate=1 / interlaced=0 / bluray_compat=0 / constrained_intra=0 / bframes=3 / b_pyramid=2 / b_adapt=2 / b_bias=0 / direct=3 / weightb=1 / open_gop=0 / weightp=2 / keyint=240 / keyint_min=24 / scenecut=40 / intra_refresh=0 / rc_lookahead=60 / rc=2pass / mbtree=1 / bitrate=1016 / ratetol=1.0 / qcomp=0.60 / qpmin=0 / qpmax=69 / qpstep=4 / cplxblur=20.0 / qblur=0.5 / vbv_maxrate=62500 / vbv_bufsize=78125 / nal_hrd=none / filler=0 / ip_ratio=1.40 / aq=1:1.00
  34. Default                     : Yes
  35. Forced                      : No
  36. Color range                 : Limited
  37. Color primaries             : BT.709
  38. Transfer characteristics    : BT.709
  39. Matrix coefficients         : BT.709
  40.  
  41. Audio
  42. ID                          : 1
  43. Format                      : AAC
  44. Format/Info                 : Advanced Audio Codec
  45. Format profile              : HE-AAC / LC
  46. Codec ID                    : A_AAC
  47. Duration                    : 2 h 14 min
  48. Bit rate                    : 63.7 kb/s
  49. Channel(s)                  : 2 channels
  50. Channel positions           : Front: L R
  51. Sampling rate               : 48.0 kHz / 24.0 kHz
  52. Frame rate                  : 23.438 FPS (1024 SPF)
  53. Compression mode            : Lossy
  54. Delay relative to video     : 31 ms
  55. Stream size                 : 61.3 MiB (6%)
  56. Language                    : Japanese
  57. Default                     : Yes
  58. Forced                      : No
  59.  
  60. Text #1
  61. ID                          : 2
  62. Format                      : UTF-8
  63. Codec ID                    : S_TEXT/UTF8
  64. Codec ID/Info               : UTF-8 Plain Text
  65. Duration                    : 2 h 12 min
  66. Bit rate                    : 26 b/s
  67. Count of elements           : 1221
  68. Stream size                 : 25.3 KiB (0%)
  69. Language                    : English
  70. Default                     : Yes
  71. Forced                      : Yes
  72.  
  73. Text #2
  74. ID                          : 3
  75. Format                      : UTF-8
  76. Codec ID                    : S_TEXT/UTF8
  77. Codec ID/Info               : UTF-8 Plain Text
  78. Duration                    : 2 h 13 min
  79. Bit rate                    : 29 b/s
  80. Count of elements           : 1217
  81. Stream size                 : 28.7 KiB (0%)
  82. Title                       : Brazilian
  83. Language                    : Portuguese
  84. Default                     : No
  85. Forced                      : No
  86.  
  87. Text #3
  88. ID                          : 4
  89. Format                      : UTF-8
  90. Codec ID                    : S_TEXT/UTF8
  91. Codec ID/Info               : UTF-8 Plain Text
  92. Duration                    : 2 h 13 min
  93. Bit rate                    : 32 b/s
  94. Count of elements           : 1211
  95. Stream size                 : 31.4 KiB (0%)
  96. Language                    : French
  97. Default                     : No
  98. Forced                      : No
  99.  
  100. Text #4
  101. ID                          : 5
  102. Format                      : UTF-8
  103. Codec ID                    : S_TEXT/UTF8
  104. Codec ID/Info               : UTF-8 Plain Text
  105. Duration                    : 2 h 12 min
  106. Bit rate                    : 30 b/s
  107. Count of elements           : 1194
  108. Stream size                 : 29.2 KiB (0%)
  109. Language                    : German
  110. Default                     : No
  111. Forced                      : No
  112.  
  113. Text #5
  114. ID                          : 6
  115. Format                      : UTF-8
  116. Codec ID                    : S_TEXT/UTF8
  117. Codec ID/Info               : UTF-8 Plain Text
  118. Duration                    : 2 h 13 min
  119. Bit rate                    : 28 b/s
  120. Count of elements           : 1211
  121. Stream size                 : 27.8 KiB (0%)
  122. Language                    : Italian
  123. Default                     : No
  124. Forced                      : No