>
Media info

13th March 2018 01:28:41 PM
| |
  1. Format                      : Matroska
  2. Format version              : Version 4 / Version 2
  3. File size                   : 652 MiB
  4. Duration                    : 1 h 22 min
  5. Overall bit rate            : 1 109 kb/s
  6. Movie name                  : Children.of.the.Corn.Runaway.2018.720p.WEB-DL.650MB.MkvCage
  7. Encoded date                : UTC 2018-03-13 13:27:14
  8. Writing application         : mkvmerge v9.7.1 ('Pandemonium') 64bit
  9. Writing library             : libebml v1.3.4 + libmatroska v1.4.5
  10.  
  11. Video
  12. ID                          : 3
  13. Format                      : AVC
  14. Format/Info                 : Advanced Video Codec
  15. Format profile              : [email protected]
  16. Format settings, CABAC      : Yes
  17. Format settings, RefFrames  : 8 frames
  18. Codec ID                    : V_MPEG4/ISO/AVC
  19. Duration                    : 1 h 22 min
  20. Bit rate                    : 1 043 kb/s
  21. Width                       : 1 280 pixels
  22. Height                      : 542 pixels
  23. Display aspect ratio        : 2.35:1
  24. Original display aspect rat : 2.35:1
  25. Frame rate mode             : Constant
  26. Frame rate                  : 23.976 (24000/1001) FPS
  27. Color space                 : YUV
  28. Chroma subsampling          : 4:2:0
  29. Bit depth                   : 8 bits
  30. Scan type                   : Progressive
  31. Bits/(Pixel*Frame)          : 0.063
  32. Stream size                 : 614 MiB (94%)
  33. Writing library             : x264 core 148 r2708 86b7198
  34. Encoding settings           : cabac=1 / ref=8 / deblock=1:0:0 / analyse=0x3:0x133 / me=umh / subme=9 / psy=1 / psy_rd=1.00:0.00 / mixed_ref=1 / me_range=16 / chroma_me=1 / trellis=2 / 8x8dct=1 / cqm=0 / deadzone=21,11 / fast_pskip=1 / chroma_qp_offset=-2 / threads=17 / lookahead_threads=1 / sliced_threads=0 / nr=0 / decimate=1 / interlaced=0 / bluray_compat=0 / constrained_intra=0 / bframes=3 / b_pyramid=2 / b_adapt=2 / b_bias=0 / direct=3 / weightb=1 / open_gop=0 / weightp=2 / keyint=240 / keyint_min=24 / scenecut=40 / intra_refresh=0 / rc_lookahead=60 / rc=2pass / mbtree=1 / bitrate=1043 / ratetol=1.0 / qcomp=0.60 / qpmin=0 / qpmax=69 / qpstep=4 / cplxblur=20.0 / qblur=0.5 / vbv_maxrate=62500 / vbv_bufsize=78125 / nal_hrd=none / filler=0 / ip_ratio=1.40 / aq=1:1.00
  35. Default                     : Yes
  36. Forced                      : No
  37. Color range                 : Limited
  38. Color primaries             : BT.709
  39. Transfer characteristics    : BT.709
  40. Matrix coefficients         : BT.709
  41.  
  42. Audio
  43. ID                          : 2
  44. Format                      : AAC
  45. Format/Info                 : Advanced Audio Codec
  46. Format profile              : HE-AAC / LC
  47. Codec ID                    : A_AAC
  48. Duration                    : 1 h 22 min
  49. Bit rate                    : 64.0 kb/s
  50. Channel(s)                  : 2 channels
  51. Channel positions           : Front: L R
  52. Sampling rate               : 48.0 kHz / 24.0 kHz
  53. Frame rate                  : 23.438 FPS (1024 SPF)
  54. Compression mode            : Lossy
  55. Delay relative to video     : 31 ms
  56. Stream size                 : 37.6 MiB (6%)
  57. Language                    : English
  58. Default                     : Yes
  59. Forced                      : No
  60.  
  61. Text
  62. ID                          : 1
  63. Format                      : UTF-8
  64. Codec ID                    : S_TEXT/UTF8
  65. Codec ID/Info               : UTF-8 Plain Text
  66. Duration                    : 1 h 22 min
  67. Bit rate                    : 39 b/s
  68. Count of elements           : 884
  69. Stream size                 : 23.7 KiB (0%)
  70. Language                    : English
  71. Default                     : Yes
  72. Forced                      : No
  73.  
  74. Menu
  75. 00:00:00.000                : :1
  76. 00:11:57.008                : :2
  77. 00:25:54.011                : :3
  78. 00:33:45.023                : :4
  79. 00:46:17.024                : :5
  80. 00:59:11.006                : :6
  81. 01:08:29.063                : :7
  82. 01:19:26.053                : :8