>
The text below is selected, press Ctrl+C to copy to your clipboard. (⌘+C on Mac) No line numbers will be copied.
Everybody Wants Some!! (2016) 720p...

30th June 2016 03:09:30 AM | Views: 39
  1. Format                      : Matroska
  2. Format version              : Version 4 / Version 2
  3. File size                   : 1.02 GiB
  4. Duration                    : 1h 57mn
  5. Overall bit rate            : 1 252 Kbps
  6. Encoded date                : UTC 2016-06-30 06:59:13
  7. Writing application         : mkvmerge v7.9.0 ('Birds') 32bit
  8. Writing library             : libebml v1.3.1 + libmatroska v1.4.2
  9.  
  10. Video
  11. ID                          : 2
  12. Format                      : AVC
  13. Format/Info                 : Advanced Video Codec
  14. Format profile              : [email protected]
  15. Format settings, CABAC      : Yes
  16. Format settings, ReFrames   : 9 frames
  17. Codec ID                    : V_MPEG4/ISO/AVC
  18. Duration                    : 1h 57mn
  19. Bit rate                    : 1 150 Kbps
  20. Width                       : 1 280 pixels
  21. Height                      : 720 pixels
  22. Display aspect ratio        : 16:9
  23. Frame rate mode             : Constant
  24. Frame rate                  : 23.976 (24000/1001) fps
  25. Color space                 : YUV
  26. Chroma subsampling          : 4:2:0
  27. Bit depth                   : 8 bits
  28. Scan type                   : Progressive
  29. Bits/(Pixel*Frame)          : 0.052
  30. Stream size                 : 963 MiB (92%)
  31. Writing library             : x264 core 146 r2538 121396c
  32. Encoding settings           : cabac=1 / ref=9 / deblock=1:0:0 / analyse=0x3:0x133 / me=umh / subme=10 / psy=1 / psy_rd=1.00:0.00 / mixed_ref=1 / me_range=24 / chroma_me=1 / trellis=2 / 8x8dct=1 / cqm=0 / deadzone=21,11 / fast_pskip=1 / chroma_qp_offset=-2 / threads=60 / lookahead_threads=5 / sliced_threads=0 / nr=0 / decimate=1 / interlaced=0 / bluray_compat=0 / constrained_intra=0 / bframes=6 / b_pyramid=2 / b_adapt=2 / b_bias=0 / direct=3 / weightb=1 / open_gop=0 / weightp=2 / keyint=240 / keyint_min=23 / scenecut=40 / intra_refresh=0 / rc_lookahead=60 / rc=2pass / mbtree=1 / bitrate=1150 / ratetol=1.0 / qcomp=0.60 / qpmin=10 / qpmax=51 / qpstep=4 / cplxblur=20.0 / qblur=0.5 / vbv_maxrate=62500 / vbv_bufsize=78125 / nal_hrd=none / filler=0 / ip_ratio=1.40 / aq=1:1.00
  33. Default                     : Yes
  34. Forced                      : No
  35.  
  36. Audio
  37. ID                          : 1
  38. Format                      : AAC
  39. Format/Info                 : Advanced Audio Codec
  40. Format profile              : HE-AAC / LC
  41. Codec ID                    : A_AAC
  42. Duration                    : 1h 57mn
  43. Bit rate                    : 99.9 Kbps
  44. Channel(s)                  : 2 channels
  45. Channel positions           : Front: L R
  46. Sampling rate               : 48.0 KHz / 24.0 KHz
  47. Frame rate                  : 23.438 fps (1024 spf)
  48. Compression mode            : Lossy
  49. Delay relative to video     : 31ms
  50. Stream size                 : 83.7 MiB (8%)
  51. Language                    : English
  52. Default                     : Yes
  53. Forced                      : No