>
The text below is selected, press Ctrl+C to copy to your clipboard. (⌘+C on Mac) No line numbers will be copied.
Allegiant (2016) 1080p BRRip 6CH...

3rd July 2016 01:04:07 PM | Views: 4
  1. Format                      : Matroska
  2. Format version              : Version 4 / Version 2
  3. File size                   : 2.74 GiB
  4. Duration                    : 2h 0mn
  5. Overall bit rate            : 3 257 Kbps
  6. Movie name                  : MkvCage.com
  7. Encoded date                : UTC 2016-07-03 16:53:29
  8. Writing application         : mkvmerge v7.9.0 ('Birds') 32bit
  9. Writing library             : libebml v1.3.1 + libmatroska v1.4.2
  10.  
  11. Video
  12. ID                          : 1
  13. Format                      : AVC
  14. Format/Info                 : Advanced Video Codec
  15. Format profile              : [email protected]
  16. Format settings, CABAC      : Yes
  17. Format settings, ReFrames   : 5 frames
  18. Codec ID                    : V_MPEG4/ISO/AVC
  19. Duration                    : 2h 0mn
  20. Bit rate                    : 2 616 Kbps
  21. Width                       : 1 920 pixels
  22. Height                      : 800 pixels
  23. Display aspect ratio        : 2.40:1
  24. Frame rate mode             : Constant
  25. Frame rate                  : 23.976 (24000/1001) fps
  26. Color space                 : YUV
  27. Chroma subsampling          : 4:2:0
  28. Bit depth                   : 8 bits
  29. Scan type                   : Progressive
  30. Bits/(Pixel*Frame)          : 0.071
  31. Stream size                 : 2.20 GiB (80%)
  32. Writing library             : x264 core 146 r2538 121396c
  33. Encoding settings           : cabac=1 / ref=5 / deblock=1:0:0 / analyse=0x3:0x133 / me=umh / subme=10 / psy=1 / psy_rd=1.00:0.00 / mixed_ref=1 / me_range=24 / chroma_me=1 / trellis=2 / 8x8dct=1 / cqm=0 / deadzone=21,11 / fast_pskip=1 / chroma_qp_offset=-2 / threads=60 / lookahead_threads=6 / sliced_threads=0 / nr=0 / decimate=1 / interlaced=0 / bluray_compat=0 / constrained_intra=0 / bframes=6 / b_pyramid=2 / b_adapt=2 / b_bias=0 / direct=3 / weightb=1 / open_gop=0 / weightp=2 / keyint=240 / keyint_min=23 / scenecut=40 / intra_refresh=0 / rc_lookahead=60 / rc=2pass / mbtree=1 / bitrate=2616 / ratetol=1.0 / qcomp=0.60 / qpmin=10 / qpmax=51 / qpstep=4 / cplxblur=20.0 / qblur=0.5 / vbv_maxrate=62500 / vbv_bufsize=78125 / nal_hrd=none / filler=0 / ip_ratio=1.40 / aq=1:1.00
  34. Default                     : Yes
  35. Forced                      : No
  36.  
  37. Audio
  38. ID                          : 2
  39. Format                      : AC-3
  40. Format/Info                 : Audio Coding 3
  41. Mode extension              : CM (complete main)
  42. Format settings, Endianness : Big
  43. Codec ID                    : A_AC3
  44. Duration                    : 2h 0mn
  45. Bit rate mode               : Constant
  46. Bit rate                    : 640 Kbps
  47. Channel(s)                  : 6 channels
  48. Channel positions           : Front: L C R, Side: L R, LFE
  49. Sampling rate               : 48.0 KHz
  50. Frame rate                  : 31.250 fps (1536 spf)
  51. Compression mode            : Lossy
  52. Stream size                 : 552 MiB (20%)
  53. Language                    : English
  54. Default                     : Yes
  55. Forced                      : No
  56.  
  57. Text
  58. ID                          : 3
  59. Format                      : UTF-8
  60. Codec ID                    : S_TEXT/UTF8
  61. Codec ID/Info               : UTF-8 Plain Text
  62. Duration                    : 1h 49mn
  63. Bit rate                    : 52 bps
  64. Count of elements           : 1313
  65. Stream size                 : 41.7 KiB (0%)
  66. Language                    : English
  67. Default                     : Yes
  68. Forced                      : No