The text below is selected, press Ctrl+C to copy to your clipboard. (⌘+C on Mac) No line numbers will be copied.
Media Info

2nd August 2018 06:24:08 AM | Views: 219
  1. Format                                   : Matroska
  2. Format version                           : Version 4 / Version 2
  3. File size                                : 702 MiB
  4. Duration                                 : 1 h 17 min
  5. Overall bit rate                         : 1 262 kb/s
  6. Movie name                               : Avengers.Infinity.War.2018.Digital.Extras.720p.AMZN.WEB-DL.MkvCage.ws
  7. Encoded date                             : UTC 2018-08-02 06:21:25
  8. Writing application                      : mkvmerge v24.0.0 ('Beyond The Pale') 32-bit
  9. Writing library                          : libebml v1.3.6 + libmatroska v1.4.9
  10.  
  11. Video
  12. ID                                       : 3
  13. Format                                   : AVC
  14. Format/Info                              : Advanced Video Codec
  15. Format profile                           : [email protected]
  16. Format settings                          : CABAC / 8 Ref Frames
  17. Format settings, CABAC                   : Yes
  18. Format settings, RefFrames               : 8 frames
  19. Codec ID                                 : V_MPEG4/ISO/AVC
  20. Duration                                 : 1 h 17 min
  21. Bit rate                                 : 1 197 kb/s
  22. Width                                    : 1 280 pixels
  23. Height                                   : 720 pixels
  24. Display aspect ratio                     : 16:9
  25. Frame rate mode                          : Constant
  26. Frame rate                               : 23.976 (24000/1001) FPS
  27. Color space                              : YUV
  28. Chroma subsampling                       : 4:2:0
  29. Bit depth                                : 8 bits
  30. Scan type                                : Progressive
  31. Bits/(Pixel*Frame)                       : 0.054
  32. Stream size                              : 666 MiB (95%)
  33. Writing library                          : x264 core 155 r2901 7d0ff22
  34. Encoding settings                        : cabac=1 / ref=8 / deblock=1:0:0 / analyse=0x3:0x133 / me=umh / subme=9 / psy=1 / psy_rd=1.00:0.00 / mixed_ref=1 / me_range=16 / chroma_me=1 / trellis=2 / 8x8dct=1 / cqm=0 / deadzone=21,11 / fast_pskip=1 / chroma_qp_offset=-2 / threads=22 / lookahead_threads=1 / sliced_threads=0 / nr=0 / decimate=1 / interlaced=0 / bluray_compat=0 / constrained_intra=0 / bframes=3 / b_pyramid=2 / b_adapt=2 / b_bias=0 / direct=3 / weightb=1 / open_gop=0 / weightp=2 / keyint=240 / keyint_min=24 / scenecut=40 / intra_refresh=0 / rc_lookahead=60 / rc=2pass / mbtree=1 / bitrate=1197 / ratetol=1.0 / qcomp=0.60 / qpmin=0 / qpmax=69 / qpstep=4 / cplxblur=20.0 / qblur=0.5 / vbv_maxrate=62500 / vbv_bufsize=78125 / nal_hrd=none / filler=0 / ip_ratio=1.40 / aq=1:1.00
  35. Default                                  : Yes
  36. Forced                                   : No
  37. Color range                              : Limited
  38. Color primaries                          : BT.709
  39. Transfer characteristics                 : BT.709
  40. Matrix coefficients                      : BT.709
  41.  
  42. Audio
  43. ID                                       : 1
  44. Format                                   : AAC
  45. Format/Info                              : Advanced Audio Codec
  46. Format profile                           : HE-AAC / LC
  47. Format settings                          : Explicit
  48. Codec ID                                 : A_AAC-2
  49. Duration                                 : 1 h 17 min
  50. Bit rate                                 : 63.9 kb/s
  51. Channel(s)                               : 2 channels
  52. Channel positions                        : Front: L R
  53. Sampling rate                            : 48.0 kHz / 24.0 kHz
  54. Frame rate                               : 23.438 FPS (1024 SPF)
  55. Compression mode                         : Lossy
  56. Delay relative to video                  : 31 ms
  57. Stream size                              : 35.5 MiB (5%)
  58. Language                                 : English
  59. Default                                  : Yes
  60. Forced                                   : No
  61.  
  62. Text
  63. ID                                       : 2
  64. Format                                   : UTF-8
  65. Codec ID                                 : S_TEXT/UTF8
  66. Codec ID/Info                            : UTF-8 Plain Text
  67. Duration                                 : 1 h 17 min
  68. Bit rate                                 : 112 b/s
  69. Count of elements                        : 1529
  70. Stream size                              : 64.1 KiB (0%)
  71. Title                                    : SDH
  72. Language                                 : English
  73. Default                                  : Yes
  74. Forced                                   : No
  75.  
  76. Menu
  77. 00:00:00.000                             : en:The Directors' Roundtable: I Am Iron Man
  78. 00:03:08.259                             : en:The Directors' Roundtable: Character First
  79. 00:07:48.259                             : en:The Directors' Roundtable: Live From Prague
  80. 00:11:36.259                             : en:The Directors' Roundtable: Secret Identities
  81. 00:13:42.259                             : en:The Directors' Roundtable: Unexpected Comedy
  82. 00:17:31.259                             : en:The Directors' Roundtable: Iconic Roles
  83. 00:18:47.259                             : en:The Directors' Roundtable: Meeting Coppola
  84. 00:21:57.259                             : en:The Directors' Roundtable: Passing The Baton
  85. 00:30:15.259                             : en:The Directors' Roundtable: From Page To Screen
  86. 00:32:55.259                             : en:Gag Reel
  87. 00:35:01.259                             : en:Strange Alchemy
  88. 00:40:14.259                             : en:The Mad Titan
  89. 00:46:47.259                             : en:Beyond the Battle: Titan
  90. 00:56:25.259                             : en:Beyond the Battle: Wakanda
  91. 01:07:24.259                             : en:Deleted Scenes