>
The text below is selected, press Ctrl+C to copy to your clipboard. (⌘+C on Mac) No line numbers will be copied.
Media Info

9th August 2018 03:21:52 PM
  1. Format                      : Matroska
  2. Format version              : Version 4 / Version 2
  3. File size                   : 802 MiB
  4. Duration                    : 1 h 26 min
  5. Overall bit rate            : 1 297 kb/s
  6. Movie name                  : Fireworks.Should.We.See.It.from.the.Side.or.the.Bottom.2017.720p.BRRip.x264.MkvCage.ws
  7. Encoded date                : UTC 2018-08-09 15:18:16
  8. Writing application         : mkvmerge v23.0.0 ('The Bride Said No') 64-bit
  9. Writing library             : libebml v1.3.6 + libmatroska v1.4.9
  10.  
  11. Video
  12. ID                          : 2
  13. Format                      : AVC
  14. Format/Info                 : Advanced Video Codec
  15. Format profile              : [email protected]
  16. Format settings             : CABAC / 5 Ref Frames
  17. Format settings, CABAC      : Yes
  18. Format settings, ReFrames   : 5 frames
  19. Codec ID                    : V_MPEG4/ISO/AVC
  20. Duration                    : 1 h 26 min
  21. Bit rate                    : 1 195 kb/s
  22. Width                       : 1 280 pixels
  23. Height                      : 720 pixels
  24. Display aspect ratio        : 16:9
  25. Frame rate mode             : Constant
  26. Frame rate                  : 25.000 FPS
  27. Color space                 : YUV
  28. Chroma subsampling          : 4:2:0
  29. Bit depth                   : 8 bits
  30. Scan type                   : Progressive
  31. Bits/(Pixel*Frame)          : 0.052
  32. Stream size                 : 739 MiB (92%)
  33. Writing library             : x264 core 133 r2334 a3ac64b
  34. Encoding settings           : cabac=1 / ref=5 / deblock=1:-1:-1 / analyse=0x3:0x113 / me=umh / subme=8 / psy=1 / psy_rd=1.00:0.00 / mixed_ref=1 / me_range=16 / chroma_me=1 / trellis=1 / 8x8dct=1 / cqm=0 / deadzone=21,11 / fast_pskip=1 / chroma_qp_offset=-2 / threads=48 / lookahead_threads=5 / sliced_threads=0 / nr=0 / decimate=1 / interlaced=0 / bluray_compat=0 / constrained_intra=0 / bframes=3 / b_pyramid=2 / b_adapt=2 / b_bias=0 / direct=3 / weightb=1 / open_gop=0 / weightp=2 / keyint=250 / keyint_min=25 / scenecut=40 / intra_refresh=0 / rc_lookahead=50 / rc=2pass / mbtree=1 / bitrate=1195 / ratetol=1.0 / qcomp=0.60 / qpmin=10 / qpmax=51 / qpstep=4 / cplxblur=20.0 / qblur=0.5 / vbv_maxrate=62500 / vbv_bufsize=78125 / nal_hrd=none / ip_ratio=1.40 / aq=1:1.00
  35. Default                     : Yes
  36. Forced                      : No
  37.  
  38. Audio
  39. ID                          : 1
  40. Format                      : AAC
  41. Format/Info                 : Advanced Audio Codec
  42. Format profile              : HE-AAC / LC
  43. Format settings             : Explicit
  44. Codec ID                    : A_AAC-2
  45. Duration                    : 1 h 26 min
  46. Bit rate                    : 100.0 kb/s
  47. Channel(s)                  : 2 channels
  48. Channel positions           : Front: L R
  49. Sampling rate               : 48.0 kHz / 24.0 kHz
  50. Frame rate                  : 23.438 FPS (1024 SPF)
  51. Compression mode            : Lossy
  52. Delay relative to video     : 31 ms
  53. Stream size                 : 61.9 MiB (8%)
  54. Language                    : Japanese
  55. Default                     : Yes
  56. Forced                      : No
  57.  
  58. Text
  59. ID                          : 3
  60. Format                      : UTF-8
  61. Codec ID                    : S_TEXT/UTF8
  62. Codec ID/Info               : UTF-8 Plain Text
  63. Duration                    : 1 h 25 min
  64. Bit rate                    : 31 b/s
  65. Count of elements           : 932
  66. Stream size                 : 19.5 KiB (0%)
  67. Title                       : English
  68. Language                    : English
  69. Default                     : Yes
  70. Forced                      : Yes
  71.  
  72. Menu
  73. 00:00:00.000                : en:00:00:00.000
  74. 00:07:06.520                : en:00:07:06.520
  75. 00:13:29.520                : en:00:13:29.520
  76. 00:21:39.960                : en:00:21:39.960
  77. 00:29:04.760                : en:00:29:04.760
  78. 00:36:34.040                : en:00:36:34.040
  79. 00:41:58.040                : en:00:41:58.040
  80. 00:48:21.800                : en:00:48:21.800
  81. 00:58:49.240                : en:00:58:49.240
  82. 01:04:44.600                : en:01:04:44.600
  83. 01:12:34.960                : en:01:12:34.960
  84. 01:22:05.440                : en:01:22:05.440