>
The text below is selected, press Ctrl+C to copy to your clipboard. (⌘+C on Mac) No line numbers will be copied.
Media Info

10th August 2018 08:23:01 AM
  1. Format                                   : Matroska
  2. Format version                           : Version 4 / Version 2
  3. File size                                : 953 MiB
  4. Duration                                 : 1 h 56 min
  5. Overall bit rate                         : 1 143 kb/s
  6. Movie name                               : Robin.Williams.Come.Inside.My.Mind.2018.720p.AMZN.WEB-DL.MkvCage.ws
  7. Encoded date                             : UTC 2018-08-10 08:19:47
  8. Writing application                      : mkvmerge v24.0.0 ('Beyond The Pale') 32-bit
  9. Writing library                          : libebml v1.3.6 + libmatroska v1.4.9
  10.  
  11. Video
  12. ID                                       : 4
  13. Format                                   : AVC
  14. Format/Info                              : Advanced Video Codec
  15. Format profile                           : [email protected]
  16. Format settings                          : CABAC / 5 Ref Frames
  17. Format settings, CABAC                   : Yes
  18. Format settings, RefFrames               : 5 frames
  19. Codec ID                                 : V_MPEG4/ISO/AVC
  20. Duration                                 : 1 h 56 min
  21. Bit rate                                 : 1 077 kb/s
  22. Width                                    : 1 280 pixels
  23. Height                                   : 720 pixels
  24. Display aspect ratio                     : 16:9
  25. Frame rate mode                          : Constant
  26. Frame rate                               : 23.976 (24000/1001) FPS
  27. Color space                              : YUV
  28. Chroma subsampling                       : 4:2:0
  29. Bit depth                                : 8 bits
  30. Scan type                                : Progressive
  31. Bits/(Pixel*Frame)                       : 0.049
  32. Stream size                              : 898 MiB (94%)
  33. Writing library                          : x264 core 155 r2901 7d0ff22
  34. Encoding settings                        : cabac=1 / ref=5 / deblock=1:0:0 / analyse=0x3:0x113 / me=hex / subme=8 / psy=1 / psy_rd=1.00:0.00 / mixed_ref=1 / me_range=16 / chroma_me=1 / trellis=2 / 8x8dct=1 / cqm=0 / deadzone=21,11 / fast_pskip=1 / chroma_qp_offset=-2 / threads=22 / lookahead_threads=3 / sliced_threads=0 / nr=0 / decimate=1 / interlaced=0 / bluray_compat=0 / constrained_intra=0 / bframes=3 / b_pyramid=2 / b_adapt=1 / b_bias=0 / direct=3 / weightb=1 / open_gop=0 / weightp=2 / keyint=240 / keyint_min=24 / scenecut=40 / intra_refresh=0 / rc_lookahead=50 / rc=2pass / mbtree=1 / bitrate=1077 / ratetol=1.0 / qcomp=0.60 / qpmin=0 / qpmax=69 / qpstep=4 / cplxblur=20.0 / qblur=0.5 / vbv_maxrate=62500 / vbv_bufsize=78125 / nal_hrd=none / filler=0 / ip_ratio=1.40 / aq=1:1.00
  35. Default                                  : Yes
  36. Forced                                   : No
  37. Color range                              : Limited
  38. Color primaries                          : BT.709
  39. Transfer characteristics                 : BT.709
  40. Matrix coefficients                      : BT.709
  41.  
  42. Audio
  43. ID                                       : 1
  44. Format                                   : AAC
  45. Format/Info                              : Advanced Audio Codec
  46. Format profile                           : HE-AAC / LC
  47. Format settings                          : Explicit
  48. Codec ID                                 : A_AAC-2
  49. Duration                                 : 1 h 56 min
  50. Bit rate                                 : 64.0 kb/s
  51. Channel(s)                               : 2 channels
  52. Channel positions                        : Front: L R
  53. Sampling rate                            : 48.0 kHz / 24.0 kHz
  54. Frame rate                               : 23.438 FPS (1024 SPF)
  55. Compression mode                         : Lossy
  56. Delay relative to video                  : 31 ms
  57. Stream size                              : 53.4 MiB (6%)
  58. Language                                 : English
  59. Default                                  : Yes
  60. Forced                                   : No
  61.  
  62. Text #1
  63. ID                                       : 2
  64. Format                                   : UTF-8
  65. Codec ID                                 : S_TEXT/UTF8
  66. Codec ID/Info                            : UTF-8 Plain Text
  67. Duration                                 : 1 h 56 min
  68. Bit rate                                 : 93 b/s
  69. Count of elements                        : 2256
  70. Stream size                              : 80.0 KiB (0%)
  71. Language                                 : English
  72. Default                                  : Yes
  73. Forced                                   : No
  74.  
  75. Text #2
  76. ID                                       : 3
  77. Format                                   : UTF-8
  78. Codec ID                                 : S_TEXT/UTF8
  79. Codec ID/Info                            : UTF-8 Plain Text
  80. Duration                                 : 1 h 56 min
  81. Bit rate                                 : 98 b/s
  82. Count of elements                        : 2380
  83. Stream size                              : 84.0 KiB (0%)
  84. Title                                    : SDH
  85. Language                                 : English
  86. Default                                  : No
  87. Forced                                   : No