>
The text below is selected, press Ctrl+C to copy to your clipboard. (⌘+C on Mac) No line numbers will be copied.
Media Info

10th August 2018 08:56:35 AM
  1. Format                      : Matroska
  2. Format version              : Version 4 / Version 2
  3. File size                   : 852 MiB
  4. Duration                    : 1 h 48 min
  5. Overall bit rate            : 1 095 kb/s
  6. Movie name                  : Elizabeth.Harvest.2018.720p.WEB-DL.MkvCage.ws
  7. Encoded date                : UTC 2018-08-10 08:54:48
  8. Writing application         : mkvmerge v23.0.0 ('The Bride Said No') 64-bit
  9. Writing library             : libebml v1.3.6 + libmatroska v1.4.9
  10.  
  11. Video
  12. ID                          : 3
  13. Format                      : AVC
  14. Format/Info                 : Advanced Video Codec
  15. Format profile              : [email protected]
  16. Format settings             : CABAC / 5 Ref Frames
  17. Format settings, CABAC      : Yes
  18. Format settings, ReFrames   : 5 frames
  19. Codec ID                    : V_MPEG4/ISO/AVC
  20. Duration                    : 1 h 48 min
  21. Bit rate                    : 1 030 kb/s
  22. Width                       : 1 280 pixels
  23. Height                      : 534 pixels
  24. Display aspect ratio        : 2.40:1
  25. Original display aspect rat : 2.40:1
  26. Frame rate mode             : Constant
  27. Frame rate                  : 23.976 (24000/1001) FPS
  28. Color space                 : YUV
  29. Chroma subsampling          : 4:2:0
  30. Bit depth                   : 8 bits
  31. Scan type                   : Progressive
  32. Bits/(Pixel*Frame)          : 0.063
  33. Stream size                 : 801 MiB (94%)
  34. Writing library             : x264 core 155 r2893 b00bcaf
  35. Encoding settings           : cabac=1 / ref=5 / deblock=1:0:0 / analyse=0x3:0x113 / me=hex / subme=8 / psy=1 / psy_rd=1.00:0.00 / mixed_ref=1 / me_range=16 / chroma_me=1 / trellis=2 / 8x8dct=1 / cqm=0 / deadzone=21,11 / fast_pskip=1 / chroma_qp_offset=-2 / threads=17 / lookahead_threads=2 / sliced_threads=0 / nr=0 / decimate=1 / interlaced=0 / bluray_compat=0 / constrained_intra=0 / bframes=3 / b_pyramid=2 / b_adapt=1 / b_bias=0 / direct=3 / weightb=1 / open_gop=0 / weightp=2 / keyint=240 / keyint_min=24 / scenecut=40 / intra_refresh=0 / rc_lookahead=50 / rc=2pass / mbtree=1 / bitrate=1030 / ratetol=1.0 / qcomp=0.60 / qpmin=0 / qpmax=69 / qpstep=4 / cplxblur=20.0 / qblur=0.5 / ip_ratio=1.40 / aq=1:1.00
  36. Default                     : Yes
  37. Forced                      : No
  38. Color range                 : Limited
  39. Color primaries             : BT.709
  40. Transfer characteristics    : BT.709
  41. Matrix coefficients         : BT.709
  42.  
  43. Audio
  44. ID                          : 1
  45. Format                      : AAC
  46. Format/Info                 : Advanced Audio Codec
  47. Format profile              : HE-AAC / LC
  48. Format settings             : Explicit
  49. Codec ID                    : A_AAC-2
  50. Duration                    : 1 h 48 min
  51. Bit rate                    : 64.0 kb/s
  52. Channel(s)                  : 2 channels
  53. Channel positions           : Front: L R
  54. Sampling rate               : 48.0 kHz / 24.0 kHz
  55. Frame rate                  : 23.438 FPS (1024 SPF)
  56. Compression mode            : Lossy
  57. Delay relative to video     : 31 ms
  58. Stream size                 : 49.8 MiB (6%)
  59. Language                    : English
  60. Default                     : Yes
  61. Forced                      : No
  62.  
  63. Text
  64. ID                          : 2
  65. Format                      : UTF-8
  66. Codec ID                    : S_TEXT/UTF8
  67. Codec ID/Info               : UTF-8 Plain Text
  68. Duration                    : 1 h 44 min
  69. Bit rate                    : 38 b/s
  70. Count of elements           : 1010
  71. Stream size                 : 29.6 KiB (0%)
  72. Language                    : English
  73. Default                     : Yes
  74. Forced                      : No
  75.  
  76. Menu
  77. 00:00:00.000                : :1
  78. 00:12:14.025                : :2
  79. 00:23:20.983                : :3
  80. 00:34:24.396                : :4
  81. 00:44:32.170                : :5
  82. 00:54:55.042                : :6
  83. 01:03:55.749                : :7
  84. 01:16:04.602                : :8
  85. 01:27:47.929                : :9
  86. 01:44:34.268                : :10