>
Media Info

10th August 2018 09:17:17 AM
| |
  1. Format                                   : Matroska
  2. Format version                           : Version 4 / Version 2
  3. File size                                : 756 MiB
  4. Duration                                 : 1 h 34 min
  5. Overall bit rate                         : 1 115 kb/s
  6. Movie name                               : The.Package.2018.720p.NF.WEB-DL.MkvCage.ws
  7. Encoded date                             : UTC 2018-08-10 09:08:53
  8. Writing application                      : mkvmerge v24.0.0 ('Beyond The Pale') 32-bit
  9. Writing library                          : libebml v1.3.6 + libmatroska v1.4.9
  10.  
  11. Video
  12. ID                                       : 28
  13. Format                                   : AVC
  14. Format/Info                              : Advanced Video Codec
  15. Format profile                           : [email protected]
  16. Format settings                          : CABAC / 5 Ref Frames
  17. Format settings, CABAC                   : Yes
  18. Format settings, RefFrames               : 5 frames
  19. Codec ID                                 : V_MPEG4/ISO/AVC
  20. Duration                                 : 1 h 34 min
  21. Bit rate                                 : 1 046 kb/s
  22. Width                                    : 1 280 pixels
  23. Height                                   : 532 pixels
  24. Display aspect ratio                     : 2.40:1
  25. Frame rate mode                          : Constant
  26. Frame rate                               : 23.976 (24000/1001) FPS
  27. Color space                              : YUV
  28. Chroma subsampling                       : 4:2:0
  29. Bit depth                                : 8 bits
  30. Scan type                                : Progressive
  31. Bits/(Pixel*Frame)                       : 0.064
  32. Stream size                              : 708 MiB (94%)
  33. Writing library                          : x264 core 155 r2901 7d0ff22
  34. Encoding settings                        : cabac=1 / ref=5 / deblock=1:0:0 / analyse=0x3:0x113 / me=hex / subme=8 / psy=1 / psy_rd=1.00:0.00 / mixed_ref=1 / me_range=16 / chroma_me=1 / trellis=2 / 8x8dct=1 / cqm=0 / deadzone=21,11 / fast_pskip=1 / chroma_qp_offset=-2 / threads=17 / lookahead_threads=2 / sliced_threads=0 / nr=0 / decimate=1 / interlaced=0 / bluray_compat=0 / constrained_intra=0 / bframes=3 / b_pyramid=2 / b_adapt=1 / b_bias=0 / direct=3 / weightb=1 / open_gop=0 / weightp=2 / keyint=240 / keyint_min=24 / scenecut=40 / intra_refresh=0 / rc_lookahead=50 / rc=2pass / mbtree=1 / bitrate=1046 / ratetol=1.0 / qcomp=0.60 / qpmin=0 / qpmax=69 / qpstep=4 / cplxblur=20.0 / qblur=0.5 / vbv_maxrate=62500 / vbv_bufsize=78125 / nal_hrd=none / filler=0 / ip_ratio=1.40 / aq=1:1.00
  35. Default                                  : Yes
  36. Forced                                   : No
  37. Color range                              : Limited
  38. Color primaries                          : BT.709
  39. Transfer characteristics                 : BT.709
  40. Matrix coefficients                      : BT.709
  41.  
  42. Audio
  43. ID                                       : 1
  44. Format                                   : AAC
  45. Format/Info                              : Advanced Audio Codec
  46. Format profile                           : HE-AAC / LC
  47. Format settings                          : Explicit
  48. Codec ID                                 : A_AAC-2
  49. Duration                                 : 1 h 34 min
  50. Bit rate                                 : 63.6 kb/s
  51. Channel(s)                               : 2 channels
  52. Channel positions                        : Front: L R
  53. Sampling rate                            : 48.0 kHz / 24.0 kHz
  54. Frame rate                               : 23.438 FPS (1024 SPF)
  55. Compression mode                         : Lossy
  56. Delay relative to video                  : 31 ms
  57. Stream size                              : 43.1 MiB (6%)
  58. Language                                 : English
  59. Default                                  : Yes
  60. Forced                                   : No
  61.  
  62. Text #1
  63. ID                                       : 2
  64. Format                                   : UTF-8
  65. Codec ID                                 : S_TEXT/UTF8
  66. Codec ID/Info                            : UTF-8 Plain Text
  67. Duration                                 : 1 h 29 min
  68. Bit rate                                 : 104 b/s
  69. Count of elements                        : 1878
  70. Stream size                              : 68.5 KiB (0%)
  71. Title                                    : SDH
  72. Language                                 : English
  73. Default                                  : Yes
  74. Forced                                   : No
  75.  
  76. Text #2
  77. ID                                       : 3
  78. Format                                   : UTF-8
  79. Codec ID                                 : S_TEXT/UTF8
  80. Codec ID/Info                            : UTF-8 Plain Text
  81. Duration                                 : 1 h 27 min
  82. Bit rate                                 : 132 b/s
  83. Count of elements                        : 1562
  84. Stream size                              : 84.7 KiB (0%)
  85. Language                                 : Arabic
  86. Default                                  : No
  87. Forced                                   : No
  88.  
  89. Text #3
  90. ID                                       : 4
  91. Format                                   : UTF-8
  92. Codec ID                                 : S_TEXT/UTF8
  93. Codec ID/Info                            : UTF-8 Plain Text
  94. Duration                                 : 1 h 27 min
  95. Bit rate                                 : 68 b/s
  96. Count of elements                        : 1213
  97. Stream size                              : 43.8 KiB (0%)
  98. Language                                 : Danish
  99. Default                                  : No
  100. Forced                                   : No
  101.  
  102. Text #4
  103. ID                                       : 5
  104. Format                                   : UTF-8
  105. Codec ID                                 : S_TEXT/UTF8
  106. Codec ID/Info                            : UTF-8 Plain Text
  107. Duration                                 : 1 h 29 min
  108. Bit rate                                 : 67 b/s
  109. Count of elements                        : 1595
  110. Stream size                              : 44.6 KiB (0%)
  111. Language                                 : German
  112. Default                                  : No
  113. Forced                                   : No
  114.  
  115. Text #5
  116. ID                                       : 6
  117. Format                                   : UTF-8
  118. Codec ID                                 : S_TEXT/UTF8
  119. Codec ID/Info                            : UTF-8 Plain Text
  120. Duration                                 : 1 h 29 min
  121. Bit rate                                 : 120 b/s
  122. Count of elements                        : 1540
  123. Stream size                              : 79.5 KiB (0%)
  124. Language                                 : Greek
  125. Default                                  : No
  126. Forced                                   : No
  127.  
  128. Text #6
  129. ID                                       : 7
  130. Format                                   : UTF-8
  131. Codec ID                                 : S_TEXT/UTF8
  132. Codec ID/Info                            : UTF-8 Plain Text
  133. Duration                                 : 1 h 29 min
  134. Bit rate                                 : 67 b/s
  135. Count of elements                        : 1599
  136. Stream size                              : 44.6 KiB (0%)
  137. Language                                 : Spanish
  138. Default                                  : No
  139. Forced                                   : No
  140.  
  141. Text #7
  142. ID                                       : 8
  143. Format                                   : UTF-8
  144. Codec ID                                 : S_TEXT/UTF8
  145. Codec ID/Info                            : UTF-8 Plain Text
  146. Duration                                 : 1 h 29 min
  147. Bit rate                                 : 73 b/s
  148. Count of elements                        : 1590
  149. Stream size                              : 48.4 KiB (0%)
  150. Title                                    : European
  151. Language                                 : Spanish
  152. Default                                  : No
  153. Forced                                   : No
  154.  
  155. Text #8
  156. ID                                       : 9
  157. Format                                   : UTF-8
  158. Codec ID                                 : S_TEXT/UTF8
  159. Codec ID/Info                            : UTF-8 Plain Text
  160. Duration                                 : 1 h 29 min
  161. Bit rate                                 : 67 b/s
  162. Count of elements                        : 1371
  163. Stream size                              : 44.3 KiB (0%)
  164. Language                                 : Finnish
  165. Default                                  : No
  166. Forced                                   : No
  167.  
  168. Text #9
  169. ID                                       : 10
  170. Format                                   : UTF-8
  171. Codec ID                                 : S_TEXT/UTF8
  172. Codec ID/Info                            : UTF-8 Plain Text
  173. Duration                                 : 1 h 27 min
  174. Bit rate                                 : 64 b/s
  175. Count of elements                        : 1557
  176. Stream size                              : 41.5 KiB (0%)
  177. Language                                 : French
  178. Default                                  : No
  179. Forced                                   : No
  180.  
  181. Text #10
  182. ID                                       : 11
  183. Format                                   : UTF-8
  184. Codec ID                                 : S_TEXT/UTF8
  185. Codec ID/Info                            : UTF-8 Plain Text
  186. Duration                                 : 1 h 29 min
  187. Bit rate                                 : 113 b/s
  188. Count of elements                        : 1558
  189. Stream size                              : 74.5 KiB (0%)
  190. Language                                 : Hebrew
  191. Default                                  : No
  192. Forced                                   : No
  193.  
  194. Text #11
  195. ID                                       : 12
  196. Format                                   : UTF-8
  197. Codec ID                                 : S_TEXT/UTF8
  198. Codec ID/Info                            : UTF-8 Plain Text
  199. Duration                                 : 1 h 27 min
  200. Bit rate                                 : 66 b/s
  201. Count of elements                        : 1544
  202. Stream size                              : 42.4 KiB (0%)
  203. Language                                 : Indonesian
  204. Default                                  : No
  205. Forced                                   : No
  206.  
  207. Text #12
  208. ID                                       : 13
  209. Format                                   : UTF-8
  210. Codec ID                                 : S_TEXT/UTF8
  211. Codec ID/Info                            : UTF-8 Plain Text
  212. Duration                                 : 1 h 29 min
  213. Bit rate                                 : 71 b/s
  214. Count of elements                        : 1523
  215. Stream size                              : 47.3 KiB (0%)
  216. Language                                 : Italian
  217. Default                                  : No
  218. Forced                                   : No
  219.  
  220. Text #13
  221. ID                                       : 14
  222. Format                                   : UTF-8
  223. Codec ID                                 : S_TEXT/UTF8
  224. Codec ID/Info                            : UTF-8 Plain Text
  225. Duration                                 : 1 h 29 min
  226. Bit rate                                 : 65 b/s
  227. Count of elements                        : 1792
  228. Stream size                              : 43.3 KiB (0%)
  229. Language                                 : Japanese
  230. Default                                  : No
  231. Forced                                   : No
  232.  
  233. Text #14
  234. ID                                       : 15
  235. Format                                   : UTF-8
  236. Codec ID                                 : S_TEXT/UTF8
  237. Codec ID/Info                            : UTF-8 Plain Text
  238. Duration                                 : 1 h 29 min
  239. Bit rate                                 : 75 b/s
  240. Count of elements                        : 1597
  241. Stream size                              : 49.4 KiB (0%)
  242. Language                                 : Korean
  243. Default                                  : No
  244. Forced                                   : No
  245.  
  246. Text #15
  247. ID                                       : 16
  248. Format                                   : UTF-8
  249. Codec ID                                 : S_TEXT/UTF8
  250. Codec ID/Info                            : UTF-8 Plain Text
  251. Duration                                 : 1 h 27 min
  252. Bit rate                                 : 65 b/s
  253. Count of elements                        : 1550
  254. Stream size                              : 42.2 KiB (0%)
  255. Language                                 : Norwegian Bokmal
  256. Default                                  : No
  257. Forced                                   : No
  258.  
  259. Text #16
  260. ID                                       : 17
  261. Format                                   : UTF-8
  262. Codec ID                                 : S_TEXT/UTF8
  263. Codec ID/Info                            : UTF-8 Plain Text
  264. Duration                                 : 1 h 29 min
  265. Bit rate                                 : 68 b/s
  266. Count of elements                        : 1322
  267. Stream size                              : 44.7 KiB (0%)
  268. Language                                 : Dutch
  269. Default                                  : No
  270. Forced                                   : No
  271.  
  272. Text #17
  273. ID                                       : 18
  274. Format                                   : UTF-8
  275. Codec ID                                 : S_TEXT/UTF8
  276. Codec ID/Info                            : UTF-8 Plain Text
  277. Duration                                 : 1 h 29 min
  278. Bit rate                                 : 64 b/s
  279. Count of elements                        : 1615
  280. Stream size                              : 42.1 KiB (0%)
  281. Language                                 : Polish
  282. Default                                  : No
  283. Forced                                   : No
  284.  
  285. Text #18
  286. ID                                       : 19
  287. Format                                   : UTF-8
  288. Codec ID                                 : S_TEXT/UTF8
  289. Codec ID/Info                            : UTF-8 Plain Text
  290. Duration                                 : 1 h 29 min
  291. Bit rate                                 : 71 b/s
  292. Count of elements                        : 1510
  293. Stream size                              : 46.9 KiB (0%)
  294. Language                                 : Portuguese
  295. Default                                  : No
  296. Forced                                   : No
  297.  
  298. Text #19
  299. ID                                       : 20
  300. Format                                   : UTF-8
  301. Codec ID                                 : S_TEXT/UTF8
  302. Codec ID/Info                            : UTF-8 Plain Text
  303. Duration                                 : 1 h 29 min
  304. Bit rate                                 : 73 b/s
  305. Count of elements                        : 1631
  306. Stream size                              : 48.6 KiB (0%)
  307. Title                                    : Brazilian
  308. Language                                 : Portuguese
  309. Default                                  : No
  310. Forced                                   : No
  311.  
  312. Text #20
  313. ID                                       : 21
  314. Format                                   : UTF-8
  315. Codec ID                                 : S_TEXT/UTF8
  316. Codec ID/Info                            : UTF-8 Plain Text
  317. Duration                                 : 1 h 29 min
  318. Bit rate                                 : 73 b/s
  319. Count of elements                        : 1559
  320. Stream size                              : 48.2 KiB (0%)
  321. Language                                 : Romanian
  322. Default                                  : No
  323. Forced                                   : No
  324.  
  325. Text #21
  326. ID                                       : 22
  327. Format                                   : UTF-8
  328. Codec ID                                 : S_TEXT/UTF8
  329. Codec ID/Info                            : UTF-8 Plain Text
  330. Duration                                 : 1 h 29 min
  331. Bit rate                                 : 106 b/s
  332. Count of elements                        : 1621
  333. Stream size                              : 70.0 KiB (0%)
  334. Language                                 : Russian
  335. Default                                  : No
  336. Forced                                   : No
  337.  
  338. Text #22
  339. ID                                       : 23
  340. Format                                   : UTF-8
  341. Codec ID                                 : S_TEXT/UTF8
  342. Codec ID/Info                            : UTF-8 Plain Text
  343. Duration                                 : 1 h 27 min
  344. Bit rate                                 : 72 b/s
  345. Count of elements                        : 1483
  346. Stream size                              : 46.3 KiB (0%)
  347. Language                                 : Swedish
  348. Default                                  : No
  349. Forced                                   : No
  350.  
  351. Text #23
  352. ID                                       : 24
  353. Format                                   : UTF-8
  354. Codec ID                                 : S_TEXT/UTF8
  355. Codec ID/Info                            : UTF-8 Plain Text
  356. Duration                                 : 1 h 29 min
  357. Bit rate                                 : 182 b/s
  358. Count of elements                        : 1599
  359. Stream size                              : 120 KiB (0%)
  360. Language                                 : Thai
  361. Default                                  : No
  362. Forced                                   : No
  363.  
  364. Text #24
  365. ID                                       : 25
  366. Format                                   : UTF-8
  367. Codec ID                                 : S_TEXT/UTF8
  368. Codec ID/Info                            : UTF-8 Plain Text
  369. Duration                                 : 1 h 29 min
  370. Bit rate                                 : 73 b/s
  371. Count of elements                        : 1538
  372. Stream size                              : 48.5 KiB (0%)
  373. Language                                 : Turkish
  374. Default                                  : No
  375. Forced                                   : No
  376.  
  377. Text #25
  378. ID                                       : 26
  379. Format                                   : UTF-8
  380. Codec ID                                 : S_TEXT/UTF8
  381. Codec ID/Info                            : UTF-8 Plain Text
  382. Duration                                 : 1 h 29 min
  383. Bit rate                                 : 69 b/s
  384. Count of elements                        : 1595
  385. Stream size                              : 45.5 KiB (0%)
  386. Title                                    : Simplified
  387. Language                                 : Chinese
  388. Default                                  : No
  389. Forced                                   : No
  390.  
  391. Text #26
  392. ID                                       : 27
  393. Format                                   : UTF-8
  394. Codec ID                                 : S_TEXT/UTF8
  395. Codec ID/Info                            : UTF-8 Plain Text
  396. Duration                                 : 1 h 27 min
  397. Bit rate                                 : 69 b/s
  398. Count of elements                        : 1557
  399. Stream size                              : 44.5 KiB (0%)
  400. Title                                    : Traditional
  401. Language                                 : Chinese
  402. Default                                  : No
  403. Forced                                   : No