>
The text below is selected, press Ctrl+C to copy to your clipboard. (⌘+C on Mac) No line numbers will be copied.
Media Info

10th August 2018 11:35:04 AM
  1. Format                                   : Matroska
  2. Format version                           : Version 4 / Version 2
  3. File size                                : 702 MiB
  4. Duration                                 : 1 h 24 min
  5. Overall bit rate                         : 1 164 kb/s
  6. Encoded date                             : UTC 2018-08-10 11:32:20
  7. Writing application                      : mkvmerge v24.0.0 ('Beyond The Pale') 32-bit
  8. Writing library                          : libebml v1.3.6 + libmatroska v1.4.9
  9.  
  10. Video
  11. ID                                       : 3
  12. Format                                   : AVC
  13. Format/Info                              : Advanced Video Codec
  14. Format profile                           : [email protected]
  15. Format settings                          : CABAC / 5 Ref Frames
  16. Format settings, CABAC                   : Yes
  17. Format settings, RefFrames               : 5 frames
  18. Codec ID                                 : V_MPEG4/ISO/AVC
  19. Duration                                 : 1 h 24 min
  20. Bit rate                                 : 1 100 kb/s
  21. Width                                    : 1 280 pixels
  22. Height                                   : 528 pixels
  23. Display aspect ratio                     : 2.40:1
  24. Frame rate mode                          : Constant
  25. Frame rate                               : 23.976 (24000/1001) FPS
  26. Color space                              : YUV
  27. Chroma subsampling                       : 4:2:0
  28. Bit depth                                : 8 bits
  29. Scan type                                : Progressive
  30. Bits/(Pixel*Frame)                       : 0.068
  31. Stream size                              : 662 MiB (94%)
  32. Writing library                          : x264 core 155 r2901 7d0ff22
  33. Encoding settings                        : cabac=1 / ref=5 / deblock=1:0:0 / analyse=0x3:0x113 / me=hex / subme=8 / psy=1 / psy_rd=1.00:0.00 / mixed_ref=1 / me_range=16 / chroma_me=1 / trellis=2 / 8x8dct=1 / cqm=0 / deadzone=21,11 / fast_pskip=1 / chroma_qp_offset=-2 / threads=16 / lookahead_threads=2 / sliced_threads=0 / nr=0 / decimate=1 / interlaced=0 / bluray_compat=0 / constrained_intra=0 / bframes=3 / b_pyramid=2 / b_adapt=1 / b_bias=0 / direct=3 / weightb=1 / open_gop=0 / weightp=2 / keyint=240 / keyint_min=24 / scenecut=40 / intra_refresh=0 / rc_lookahead=50 / rc=2pass / mbtree=1 / bitrate=1100 / ratetol=1.0 / qcomp=0.60 / qpmin=0 / qpmax=69 / qpstep=4 / cplxblur=20.0 / qblur=0.5 / vbv_maxrate=62500 / vbv_bufsize=78125 / nal_hrd=none / filler=0 / ip_ratio=1.40 / aq=1:1.00
  34. Default                                  : Yes
  35. Forced                                   : No
  36. Color range                              : Limited
  37. Color primaries                          : BT.709
  38. Transfer characteristics                 : BT.709
  39. Matrix coefficients                      : BT.709
  40.  
  41. Audio
  42. ID                                       : 1
  43. Format                                   : AAC
  44. Format/Info                              : Advanced Audio Codec
  45. Format profile                           : HE-AAC / LC
  46. Format settings                          : Explicit
  47. Codec ID                                 : A_AAC-2
  48. Duration                                 : 1 h 24 min
  49. Bit rate                                 : 63.8 kb/s
  50. Channel(s)                               : 2 channels
  51. Channel positions                        : Front: L R
  52. Sampling rate                            : 48.0 kHz / 24.0 kHz
  53. Frame rate                               : 23.438 FPS (1024 SPF)
  54. Compression mode                         : Lossy
  55. Delay relative to video                  : 31 ms
  56. Stream size                              : 38.5 MiB (5%)
  57. Language                                 : English
  58. Default                                  : Yes
  59. Forced                                   : No
  60.  
  61. Text
  62. ID                                       : 2
  63. Format                                   : UTF-8
  64. Codec ID                                 : S_TEXT/UTF8
  65. Codec ID/Info                            : UTF-8 Plain Text
  66. Duration                                 : 1 h 20 min
  67. Bit rate                                 : 44 b/s
  68. Count of elements                        : 911
  69. Stream size                              : 26.3 KiB (0%)
  70. Title                                    : SDH
  71. Language                                 : English
  72. Default                                  : Yes
  73. Forced                                   : No