The text below is selected, press Ctrl+C to copy to your clipboard. (⌘+C on Mac) No line numbers will be copied.
Media Info

6th September 2018 04:53:08 AM | Views: 48
  1. Format                                   : Matroska
  2. Format version                           : Version 4
  3. File size                                : 1.64 GiB
  4. Duration                                 : 1 h 42 min
  5. Overall bit rate                         : 2 292 kb/s
  6. Movie name                               : Skyscraper.2018.1080p.WEB-DL.MkvCage.ws
  7. Encoded date                             : UTC 2018-09-06 04:50:00
  8. Writing application                      : mkvmerge v25.0.0 ('Prog Noir') 64-bit
  9. Writing library                          : libebml v1.3.6 + libmatroska v1.4.9
  10.  
  11. Video
  12. ID                                       : 3
  13. Format                                   : AVC
  14. Format/Info                              : Advanced Video Codec
  15. Format profile                           : [email protected]
  16. Format settings                          : CABAC / 5 Ref Frames
  17. Format settings, CABAC                   : Yes
  18. Format settings, RefFrames               : 5 frames
  19. Codec ID                                 : V_MPEG4/ISO/AVC
  20. Duration                                 : 1 h 42 min
  21. Bit rate                                 : 2 100 kb/s
  22. Width                                    : 1 916 pixels
  23. Height                                   : 796 pixels
  24. Display aspect ratio                     : 2.40:1
  25. Frame rate mode                          : Constant
  26. Frame rate                               : 23.976 (24000/1001) FPS
  27. Color space                              : YUV
  28. Chroma subsampling                       : 4:2:0
  29. Bit depth                                : 8 bits
  30. Scan type                                : Progressive
  31. Bits/(Pixel*Frame)                       : 0.057
  32. Stream size                              : 1.50 GiB (92%)
  33. Writing library                          : x264 core 155 r2901 7d0ff22
  34. Encoding settings                        : cabac=1 / ref=5 / deblock=1:-1:-1 / analyse=0x3:0x113 / me=hex / subme=8 / psy=1 / psy_rd=1.00:0.15 / mixed_ref=1 / me_range=16 / chroma_me=1 / trellis=2 / 8x8dct=1 / cqm=0 / deadzone=21,11 / fast_pskip=1 / chroma_qp_offset=-3 / threads=25 / lookahead_threads=4 / sliced_threads=0 / nr=0 / decimate=1 / interlaced=0 / bluray_compat=0 / constrained_intra=0 / bframes=3 / b_pyramid=2 / b_adapt=1 / b_bias=0 / direct=3 / weightb=1 / open_gop=0 / weightp=2 / keyint=240 / keyint_min=24 / scenecut=40 / intra_refresh=0 / rc_lookahead=50 / rc=2pass / mbtree=1 / bitrate=2100 / ratetol=1.0 / qcomp=0.60 / qpmin=0 / qpmax=69 / qpstep=4 / cplxblur=20.0 / qblur=0.5 / vbv_maxrate=62500 / vbv_bufsize=78125 / nal_hrd=none / filler=0 / ip_ratio=1.40 / aq=1:1.00
  35. Default                                  : Yes
  36. Forced                                   : No
  37. Color range                              : Limited
  38. Color primaries                          : BT.709
  39. Transfer characteristics                 : BT.709
  40. Matrix coefficients                      : BT.709
  41.  
  42. Audio
  43. ID                                       : 2
  44. Format                                   : AC-3
  45. Format/Info                              : Audio Coding 3
  46. Commercial name                          : Dolby Digital
  47. Codec ID                                 : A_AC3
  48. Duration                                 : 1 h 42 min
  49. Bit rate mode                            : Constant
  50. Bit rate                                 : 192 kb/s
  51. Channel(s)                               : 2 channels
  52. Channel layout                           : L R
  53. Sampling rate                            : 48.0 kHz
  54. Frame rate                               : 31.250 FPS (1536 SPF)
  55. Bit depth                                : 16 bits
  56. Compression mode                         : Lossy
  57. Stream size                              : 141 MiB (8%)
  58. Language                                 : English
  59. Service kind                             : Complete Main
  60. Default                                  : Yes
  61. Forced                                   : No
  62.  
  63. Text
  64. ID                                       : 1
  65. Format                                   : UTF-8
  66. Codec ID                                 : S_TEXT/UTF8
  67. Codec ID/Info                            : UTF-8 Plain Text
  68. Duration                                 : 1 h 31 min
  69. Bit rate                                 : 43 b/s
  70. Count of elements                        : 1019
  71. Stream size                              : 28.9 KiB (0%)
  72. Language                                 : English
  73. Default                                  : Yes
  74. Forced                                   : No
  75.  
  76. Menu
  77. 00:00:00.000                             : en:1
  78. 00:04:25.765                             : en:2
  79. 00:10:08.357                             : en:3
  80. 00:16:10.927                             : en:4
  81. 00:21:13.604                             : en:5
  82. 00:25:35.991                             : en:6
  83. 00:30:12.726                             : en:7
  84. 00:35:24.913                             : en:8
  85. 00:40:08.112                             : en:9
  86. 00:47:19.960                             : en:10
  87. 00:52:11.251                             : en:11
  88. 00:58:17.784                             : en:12
  89. 01:02:03.968                             : en:13
  90. 01:05:30.632                             : en:14
  91. 01:10:00.401                             : en:15
  92. 01:14:32.423                             : en:16
  93. 01:17:19.256                             : en:17
  94. 01:23:34.339                             : en:18
  95. 01:27:47.216                             : en:19
  96. 01:32:55.566                             : en:20