>
Media Info

14th September 2018 09:25:23 AM
| |
  1. Format                      : Matroska
  2. Format version              : Version 4 / Version 2
  3. File size                   : 904 MiB
  4. Duration                    : 1 h 54 min
  5. Overall bit rate            : 1 107 kb/s
  6. Movie name                  : The Angel.2018.720p.NF.WEB-DL.MkvCage.ws
  7. Encoded date                : UTC 2018-09-14 09:17:52
  8. Writing application         : mkvmerge v23.0.0 ('The Bride Said No') 64-bit
  9. Writing library             : libebml v1.3.6 + libmatroska v1.4.9
  10.  
  11. Video
  12. ID                          : 2
  13. Format                      : AVC
  14. Format/Info                 : Advanced Video Codec
  15. Format profile              : [email protected]
  16. Format settings             : CABAC / 5 Ref Frames
  17. Format settings, CABAC      : Yes
  18. Format settings, ReFrames   : 5 frames
  19. Codec ID                    : V_MPEG4/ISO/AVC
  20. Duration                    : 1 h 54 min
  21. Bit rate                    : 1 040 kb/s
  22. Width                       : 1 280 pixels
  23. Height                      : 692 pixels
  24. Display aspect ratio        : 1.85:1
  25. Frame rate mode             : Constant
  26. Frame rate                  : 24.000 FPS
  27. Color space                 : YUV
  28. Chroma subsampling          : 4:2:0
  29. Bit depth                   : 8 bits
  30. Scan type                   : Progressive
  31. Bits/(Pixel*Frame)          : 0.049
  32. Stream size                 : 849 MiB (94%)
  33. Writing library             : x264 core 155 r2893 b00bcaf
  34. Encoding settings           : cabac=1 / ref=5 / deblock=1:-1:-1 / analyse=0x3:0x113 / me=hex / subme=8 / psy=1 / psy_rd=1.00:0.15 / mixed_ref=1 / me_range=16 / chroma_me=1 / trellis=2 / 8x8dct=1 / cqm=0 / deadzone=21,11 / fast_pskip=1 / chroma_qp_offset=-3 / threads=22 / lookahead_threads=3 / sliced_threads=0 / nr=0 / decimate=1 / interlaced=0 / bluray_compat=0 / constrained_intra=0 / bframes=3 / b_pyramid=2 / b_adapt=1 / b_bias=0 / direct=3 / weightb=1 / open_gop=0 / weightp=2 / keyint=240 / keyint_min=24 / scenecut=40 / intra_refresh=0 / rc_lookahead=50 / rc=2pass / mbtree=1 / bitrate=1040 / ratetol=1.0 / qcomp=0.60 / qpmin=0 / qpmax=69 / qpstep=4 / cplxblur=20.0 / qblur=0.5 / vbv_maxrate=62500 / vbv_bufsize=78125 / nal_hrd=none / filler=0 / ip_ratio=1.40 / aq=1:1.00
  35. Default                     : Yes
  36. Forced                      : No
  37. Color range                 : Limited
  38. Color primaries             : BT.709
  39. Transfer characteristics    : BT.709
  40. Matrix coefficients         : BT.709
  41.  
  42. Audio
  43. ID                          : 1
  44. Format                      : AAC
  45. Format/Info                 : Advanced Audio Codec
  46. Format profile              : HE-AAC / LC
  47. Format settings             : Explicit
  48. Codec ID                    : A_AAC-2
  49. Duration                    : 1 h 54 min
  50. Bit rate                    : 64.0 kb/s
  51. Channel(s)                  : 2 channels
  52. Channel positions           : Front: L R
  53. Sampling rate               : 48.0 kHz / 24.0 kHz
  54. Frame rate                  : 23.438 FPS (1024 SPF)
  55. Compression mode            : Lossy
  56. Delay relative to video     : 31 ms
  57. Stream size                 : 52.3 MiB (6%)
  58. Language                    : English
  59. Default                     : Yes
  60. Forced                      : No
  61.  
  62. Text #1
  63. ID                          : 3
  64. Format                      : UTF-8
  65. Codec ID                    : S_TEXT/UTF8
  66. Codec ID/Info               : UTF-8 Plain Text
  67. Duration                    : 1 h 46 min
  68. Bit rate                    : 56 b/s
  69. Count of elements           : 1434
  70. Stream size                 : 43.9 KiB (0%)
  71. Title                       : English
  72. Language                    : English
  73. Default                     : Yes
  74. Forced                      : No
  75.  
  76. Text #2
  77. ID                          : 4
  78. Format                      : UTF-8
  79. Codec ID                    : S_TEXT/UTF8
  80. Codec ID/Info               : UTF-8 Plain Text
  81. Duration                    : 1 h 39 min
  82. Bit rate                    : 24 b/s
  83. Count of elements           : 493
  84. Stream size                 : 17.9 KiB (0%)
  85. Title                       : Forced
  86. Language                    : English
  87. Default                     : No
  88. Forced                      : Yes
  89.  
  90. Text #3
  91. ID                          : 5
  92. Format                      : UTF-8
  93. Codec ID                    : S_TEXT/UTF8
  94. Codec ID/Info               : UTF-8 Plain Text
  95. Duration                    : 1 h 46 min
  96. Bit rate                    : 90 b/s
  97. Count of elements           : 1140
  98. Stream size                 : 70.4 KiB (0%)
  99. Title                       : French
  100. Language                    : French
  101. Default                     : No
  102. Forced                      : No
  103.  
  104. Text #4
  105. ID                          : 6
  106. Format                      : UTF-8
  107. Codec ID                    : S_TEXT/UTF8
  108. Codec ID/Info               : UTF-8 Plain Text
  109. Duration                    : 1 h 46 min
  110. Bit rate                    : 45 b/s
  111. Count of elements           : 1176
  112. Stream size                 : 35.5 KiB (0%)
  113. Title                       : Dutch
  114. Language                    : Dutch
  115. Default                     : No
  116. Forced                      : No
  117.  
  118. Text #5
  119. ID                          : 7
  120. Format                      : UTF-8
  121. Codec ID                    : S_TEXT/UTF8
  122. Codec ID/Info               : UTF-8 Plain Text
  123. Duration                    : 1 h 46 min
  124. Bit rate                    : 60 b/s
  125. Count of elements           : 1184
  126. Stream size                 : 46.8 KiB (0%)
  127. Title                       : Italian
  128. Language                    : Italian
  129. Default                     : No
  130. Forced                      : No
  131.  
  132. Text #6
  133. ID                          : 8
  134. Format                      : UTF-8
  135. Codec ID                    : S_TEXT/UTF8
  136. Codec ID/Info               : UTF-8 Plain Text
  137. Duration                    : 1 h 46 min
  138. Bit rate                    : 61 b/s
  139. Count of elements           : 1188
  140. Stream size                 : 47.6 KiB (0%)
  141. Title                       : Portuguese
  142. Language                    : Portuguese
  143. Default                     : No
  144. Forced                      : No
  145.  
  146. Text #7
  147. ID                          : 9
  148. Format                      : UTF-8
  149. Codec ID                    : S_TEXT/UTF8
  150. Codec ID/Info               : UTF-8 Plain Text
  151. Duration                    : 1 h 46 min
  152. Bit rate                    : 53 b/s
  153. Count of elements           : 1191
  154. Stream size                 : 41.7 KiB (0%)
  155. Title                       : Polish
  156. Language                    : Polish
  157. Default                     : No
  158. Forced                      : No
  159.  
  160. Text #8
  161. ID                          : 10
  162. Format                      : UTF-8
  163. Codec ID                    : S_TEXT/UTF8
  164. Codec ID/Info               : UTF-8 Plain Text
  165. Duration                    : 1 h 46 min
  166. Bit rate                    : 60 b/s
  167. Count of elements           : 1191
  168. Stream size                 : 47.2 KiB (0%)
  169. Title                       : Brazilian Portuguese
  170. Language                    : Portuguese
  171. Default                     : No
  172. Forced                      : No
  173.  
  174. Text #9
  175. ID                          : 11
  176. Format                      : UTF-8
  177. Codec ID                    : S_TEXT/UTF8
  178. Codec ID/Info               : UTF-8 Plain Text
  179. Duration                    : 1 h 46 min
  180. Bit rate                    : 54 b/s
  181. Count of elements           : 1053
  182. Stream size                 : 42.5 KiB (0%)
  183. Title                       : Swedish
  184. Language                    : Swedish
  185. Default                     : No
  186. Forced                      : No
  187.  
  188. Text #10
  189. ID                          : 12
  190. Format                      : UTF-8
  191. Codec ID                    : S_TEXT/UTF8
  192. Codec ID/Info               : UTF-8 Plain Text
  193. Duration                    : 1 h 53 min
  194. Bit rate                    : 44 b/s
  195. Count of elements           : 1001
  196. Stream size                 : 37.2 KiB (0%)
  197. Title                       : Finnish
  198. Language                    : Finnish
  199. Default                     : No
  200. Forced                      : No
  201.  
  202. Text #11
  203. ID                          : 13
  204. Format                      : UTF-8
  205. Codec ID                    : S_TEXT/UTF8
  206. Codec ID/Info               : UTF-8 Plain Text
  207. Duration                    : 1 h 46 min
  208. Bit rate                    : 49 b/s
  209. Count of elements           : 1058
  210. Stream size                 : 38.6 KiB (0%)
  211. Title                       : Norwegian
  212. Language                    : Norwegian
  213. Default                     : No
  214. Forced                      : No
  215.  
  216. Text #12
  217. ID                          : 14
  218. Format                      : UTF-8
  219. Codec ID                    : S_TEXT/UTF8
  220. Codec ID/Info               : UTF-8 Plain Text
  221. Duration                    : 1 h 53 min
  222. Bit rate                    : 45 b/s
  223. Count of elements           : 1055
  224. Stream size                 : 37.9 KiB (0%)
  225. Title                       : Danish
  226. Language                    : Danish
  227. Default                     : No
  228. Forced                      : No
  229.  
  230. Text #13
  231. ID                          : 15
  232. Format                      : UTF-8
  233. Codec ID                    : S_TEXT/UTF8
  234. Codec ID/Info               : UTF-8 Plain Text
  235. Duration                    : 1 h 46 min
  236. Bit rate                    : 63 b/s
  237. Count of elements           : 1187
  238. Stream size                 : 49.3 KiB (0%)
  239. Title                       : European Spanish
  240. Language                    : Spanish
  241. Default                     : No
  242. Forced                      : No
  243.  
  244. Text #14
  245. ID                          : 16
  246. Format                      : UTF-8
  247. Codec ID                    : S_TEXT/UTF8
  248. Codec ID/Info               : UTF-8 Plain Text
  249. Duration                    : 1 h 46 min
  250. Bit rate                    : 101 b/s
  251. Count of elements           : 1181
  252. Stream size                 : 79.0 KiB (0%)
  253. Title                       : Greek
  254. Default                     : No
  255. Forced                      : No
  256.  
  257. Text #15
  258. ID                          : 17
  259. Format                      : UTF-8
  260. Codec ID                    : S_TEXT/UTF8
  261. Codec ID/Info               : UTF-8 Plain Text
  262. Duration                    : 1 h 46 min
  263. Bit rate                    : 59 b/s
  264. Count of elements           : 1191
  265. Stream size                 : 46.2 KiB (0%)
  266. Title                       : Spanish
  267. Language                    : Spanish
  268. Default                     : No
  269. Forced                      : No
  270.  
  271. Text #16
  272. ID                          : 18
  273. Format                      : UTF-8
  274. Codec ID                    : S_TEXT/UTF8
  275. Codec ID/Info               : UTF-8 Plain Text
  276. Duration                    : 1 h 53 min
  277. Bit rate                    : 43 b/s
  278. Count of elements           : 1191
  279. Stream size                 : 35.9 KiB (0%)
  280. Title                       : German
  281. Language                    : German
  282. Default                     : No
  283. Forced                      : No
  284.  
  285. Text #17
  286. ID                          : 19
  287. Format                      : UTF-8
  288. Codec ID                    : S_TEXT/UTF8
  289. Codec ID/Info               : UTF-8 Plain Text
  290. Duration                    : 1 h 46 min
  291. Bit rate                    : 60 b/s
  292. Count of elements           : 1194
  293. Stream size                 : 47.5 KiB (0%)
  294. Title                       : Turkish
  295. Language                    : Turkish
  296. Default                     : No
  297. Forced                      : No