>
Media Info

14th September 2018 01:20:11 PM
| |
  1. Format                                   : Matroska
  2. Format version                           : Version 4
  3. File size                                : 1.94 GiB
  4. Duration                                 : 2 h 1 min
  5. Overall bit rate                         : 2 293 kb/s
  6. Movie name                               : Mandy.2018.1080p.AMZN.WEB-DL.MkvCage.ws
  7. Encoded date                             : UTC 2018-09-14 13:15:48
  8. Writing application                      : mkvmerge v25.0.0 ('Prog Noir') 64-bit
  9. Writing library                          : libebml v1.3.6 + libmatroska v1.4.9
  10.  
  11. Video
  12. ID                                       : 2
  13. Format                                   : AVC
  14. Format/Info                              : Advanced Video Codec
  15. Format profile                           : [email protected]
  16. Format settings                          : CABAC / 5 Ref Frames
  17. Format settings, CABAC                   : Yes
  18. Format settings, RefFrames               : 5 frames
  19. Codec ID                                 : V_MPEG4/ISO/AVC
  20. Duration                                 : 2 h 1 min
  21. Bit rate                                 : 2 100 kb/s
  22. Width                                    : 1 920 pixels
  23. Height                                   : 816 pixels
  24. Display aspect ratio                     : 2.35:1
  25. Original display aspect ratio            : 2.35:1
  26. Frame rate mode                          : Constant
  27. Frame rate                               : 23.976 (24000/1001) FPS
  28. Color space                              : YUV
  29. Chroma subsampling                       : 4:2:0
  30. Bit depth                                : 8 bits
  31. Scan type                                : Progressive
  32. Bits/(Pixel*Frame)                       : 0.056
  33. Stream size                              : 1.78 GiB (92%)
  34. Writing library                          : x264 core 155 r2901 7d0ff22
  35. Encoding settings                        : cabac=1 / ref=5 / deblock=1:-1:-1 / analyse=0x3:0x113 / me=hex / subme=8 / psy=1 / psy_rd=1.00:0.15 / mixed_ref=1 / me_range=16 / chroma_me=1 / trellis=2 / 8x8dct=1 / cqm=0 / deadzone=21,11 / fast_pskip=1 / chroma_qp_offset=-3 / threads=25 / lookahead_threads=4 / sliced_threads=0 / nr=0 / decimate=1 / interlaced=0 / bluray_compat=0 / constrained_intra=0 / bframes=3 / b_pyramid=2 / b_adapt=1 / b_bias=0 / direct=3 / weightb=1 / open_gop=0 / weightp=2 / keyint=240 / keyint_min=24 / scenecut=40 / intra_refresh=0 / rc_lookahead=50 / rc=2pass / mbtree=1 / bitrate=2100 / ratetol=1.0 / qcomp=0.60 / qpmin=0 / qpmax=69 / qpstep=4 / cplxblur=20.0 / qblur=0.5 / vbv_maxrate=62500 / vbv_bufsize=78125 / nal_hrd=none / filler=0 / ip_ratio=1.40 / aq=1:1.00
  36. Default                                  : Yes
  37. Forced                                   : No
  38. Color range                              : Limited
  39. Color primaries                          : BT.709
  40. Transfer characteristics                 : BT.709
  41. Matrix coefficients                      : BT.709
  42.  
  43. Audio
  44. ID                                       : 1
  45. Format                                   : AAC LC SBR
  46. Format/Info                              : Advanced Audio Codec Low Complexity with Spectral Band Replication
  47. Commercial name                          : HE-AAC
  48. Format settings                          : Explicit
  49. Codec ID                                 : A_AAC-2
  50. Duration                                 : 2 h 1 min
  51. Bit rate                                 : 192 kb/s
  52. Channel(s)                               : 6 channels
  53. Channel layout                           : C L R Ls Rs LFE
  54. Sampling rate                            : 48.0 kHz
  55. Frame rate                               : 23.438 FPS (2048 SPF)
  56. Compression mode                         : Lossy
  57. Delay relative to video                  : 31 ms
  58. Stream size                              : 166 MiB (8%)
  59. Language                                 : English
  60. Default                                  : Yes
  61. Forced                                   : No
  62.  
  63. Text #1
  64. ID                                       : 3
  65. Format                                   : UTF-8
  66. Codec ID                                 : S_TEXT/UTF8
  67. Codec ID/Info                            : UTF-8 Plain Text
  68. Duration                                 : 1 h 59 min
  69. Bit rate                                 : 18 b/s
  70. Count of elements                        : 697
  71. Stream size                              : 16.0 KiB (0%)
  72. Title                                    : SDH
  73. Language                                 : English
  74. Default                                  : Yes
  75. Forced                                   : No
  76.  
  77. Text #2
  78. ID                                       : 4
  79. Format                                   : UTF-8
  80. Codec ID                                 : S_TEXT/UTF8
  81. Codec ID/Info                            : UTF-8 Plain Text
  82. Duration                                 : 1 h 50 min
  83. Bit rate                                 : 14 b/s
  84. Count of elements                        : 485
  85. Stream size                              : 12.0 KiB (0%)
  86. Language                                 : Spanish
  87. Default                                  : No
  88. Forced                                   : No