The text below is selected, press Ctrl+C to copy to your clipboard. (⌘+C on Mac) No line numbers will be copied.
MediaInfo

1st October 2018 04:46:27 PM | Views: 136
  1. Format                      : Matroska
  2. Format version              : Version 4
  3. File size                   : 954 MiB
  4. Duration                    : 1 h 58 min
  5. Overall bit rate            : 1 130 kb/s
  6. Movie name                  : Ant.Man.and.the.Wasp.2018.720p.WEB-DL.MkvCage.ws
  7. Encoded date                : UTC 2018-10-01 16:45:17
  8. Writing application         : mkvmerge v27.0.0 ('Metropolis') 32-bit
  9. Writing library             : libebml v1.3.6 + libmatroska v1.4.9
  10.  
  11. Video
  12. ID                          : 3
  13. Format                      : AVC
  14. Format/Info                 : Advanced Video Codec
  15. Format profile              : [email protected]
  16. Format settings             : CABAC / 5 Ref Frames
  17. Format settings, CABAC      : Yes
  18. Format settings, ReFrames   : 5 frames
  19. Codec ID                    : V_MPEG4/ISO/AVC
  20. Duration                    : 1 h 58 min
  21. Bit rate                    : 1 064 kb/s
  22. Width                       : 1 280 pixels
  23. Height                      : 536 pixels
  24. Display aspect ratio        : 2.40:1
  25. Frame rate mode             : Constant
  26. Frame rate                  : 23.976 (24000/1001) FPS
  27. Color space                 : YUV
  28. Chroma subsampling          : 4:2:0
  29. Bit depth                   : 8 bits
  30. Scan type                   : Progressive
  31. Bits/(Pixel*Frame)          : 0.065
  32. Stream size                 : 898 MiB (94%)
  33. Writing library             : x264 core 155 r2901 7d0ff22
  34. Encoding settings           : cabac=1 / ref=5 / deblock=1:-1:-1 / analyse=0x3:0x113 / me=hex / subme=8 / psy=1 / psy_rd=1.00:0.15 / mixed_ref=1 / me_range=16 / chroma_me=1 / trellis=2 / 8x8dct=1 / cqm=0 / deadzone=21,11 / fast_pskip=1 / chroma_qp_offset=-3 / threads=17 / lookahead_threads=2 / sliced_threads=0 / nr=0 / decimate=1 / interlaced=0 / bluray_compat=0 / constrained_intra=0 / bframes=3 / b_pyramid=2 / b_adapt=1 / b_bias=0 / direct=3 / weightb=1 / open_gop=0 / weightp=2 / keyint=240 / keyint_min=24 / scenecut=40 / intra_refresh=0 / rc_lookahead=50 / rc=2pass / mbtree=1 / bitrate=1064 / ratetol=1.0 / qcomp=0.60 / qpmin=0 / qpmax=69 / qpstep=4 / cplxblur=20.0 / qblur=0.5 / vbv_maxrate=62500 / vbv_bufsize=78125 / nal_hrd=none / filler=0 / ip_ratio=1.40 / aq=1:1.00
  35. Default                     : Yes
  36. Forced                      : No
  37. Color range                 : Limited
  38. Color primaries             : BT.709
  39. Transfer characteristics    : BT.709
  40. Matrix coefficients         : BT.709
  41.  
  42. Audio
  43. ID                          : 1
  44. Format                      : AAC LC SBR
  45. Format/Info                 : Advanced Audio Codec Low Complexity with Spectral Band Replication
  46. Commercial name             : HE-AAC
  47. Format settings             : Explicit
  48. Codec ID                    : A_AAC-2
  49. Duration                    : 1 h 58 min
  50. Bit rate                    : 64.0 kb/s
  51. Channel(s)                  : 2 channels
  52. Channel layout              : L R
  53. Sampling rate               : 48.0 kHz
  54. Frame rate                  : 23.438 FPS (2048 SPF)
  55. Compression mode            : Lossy
  56. Delay relative to video     : 31 ms
  57. Stream size                 : 54.1 MiB (6%)
  58. Language                    : English
  59. Default                     : Yes
  60. Forced                      : No
  61.  
  62. Text
  63. ID                          : 2
  64. Format                      : UTF-8
  65. Codec ID                    : S_TEXT/UTF8
  66. Codec ID/Info               : UTF-8 Plain Text
  67. Duration                    : 1 h 51 min
  68. Bit rate                    : 65 b/s
  69. Count of elements           : 1932
  70. Stream size                 : 53.6 KiB (0%)
  71. Language                    : English
  72. Default                     : Yes
  73. Forced                      : No
  74.  
  75. Menu
  76. 00:00:00.000                : :Prologue
  77. 00:04:02.033                : :World's Greatest Grandma
  78. 00:10:15.990                : :Easy Peasy
  79. 00:13:38.985                : :Quantum Entanglement
  80. 00:21:25.034                : :Kitchen Conflict
  81. 00:29:06.995                : :Bill Foster
  82. 00:36:09.000                : :Student Body
  83. 00:40:55.995                : :Molecular Disequilibrium
  84. 00:50:17.014                : :Truth Serum
  85. 00:58:58.994                : :Help From Janet
  86. 01:04:56.017                : :Partners
  87. 01:12:54.036                : :Misdirection
  88. 01:18:32.041                : :San Francisco Car Chase
  89. 01:24:44.997                : :Giant-Man
  90. 01:29:47.007                : :The Quantum Void
  91. 01:36:16.020                : :Extraction
  92. 01:43:35.000                : :Happy Endings
  93. 01:46:58.996                : :End Credits