The text below is selected, press Ctrl+C to copy to your clipboard. (⌘+C on Mac) No line numbers will be copied.
Khajoor Pe Atke (2018) Hindi...

27th October 2018 05:55:39 AM | Views: 27
  1. General
  2. Format                                   : MPEG-4
  3. Format profile                           : Base Media / Version 2
  4. Codec ID                                 : mp42 (isom/iso2/avc1/mp41/mp42)
  5. File size                                : 2.95 GiB
  6. Duration                                 : 1 h 58 min
  7. Overall bit rate mode                    : Variable
  8. Overall bit rate                         : 3 578 kb/s
  9.  
  10. Video
  11. ID                                       : 1
  12. Format                                   : AVC
  13. Format/Info                              : Advanced Video Codec
  14. Format profile                           : [email protected]
  15. Format settings                          : CABAC / 4 Ref Frames
  16. Format settings, CABAC                   : Yes
  17. Format settings, ReFrames                : 4 frames
  18. Codec ID                                 : avc1
  19. Codec ID/Info                            : Advanced Video Coding
  20. Duration                                 : 1 h 58 min
  21. Bit rate                                 : 3 500 kb/s
  22. Width                                    : 1 920 pixels
  23. Height                                   : 1 080 pixels
  24. Display aspect ratio                     : 16:9
  25. Frame rate mode                          : Constant
  26. Frame rate                               : 24.000 FPS
  27. Color space                              : YUV
  28. Chroma subsampling                       : 4:2:0
  29. Bit depth                                : 8 bits
  30. Scan type                                : Progressive
  31. Bits/(Pixel*Frame)                       : 0.070
  32. Stream size                              : 2.85 GiB (96%)
  33. Writing library                          : x264 core 148 r2579M 73ae2d1
  34.  
  35. Audio
  36. ID                                       : 2
  37. Format                                   : AAC
  38. Format/Info                              : Advanced Audio Codec
  39. Format profile                           : HE-AAC / LC
  40. Format settings                          : Implicit
  41. Codec ID                                 : mp4a-40-2
  42. Duration                                 : 1 h 58 min
  43. Bit rate mode                            : Variable
  44. Bit rate                                 : 127 kb/s
  45. Channel(s)                               : 2 channels
  46. Channel positions                        : Front: L R
  47. Sampling rate                            : 48.0 kHz / 24.0 kHz
  48. Frame rate                               : 23.438 FPS (1024 SPF)
  49. Compression mode                         : Lossy
  50. Stream size                              : 107 MiB (4%)
  51. Default                                  : Yes
  52. Alternate group                          : 1