>
The text below is selected, press Ctrl+C to copy to your clipboard. (⌘+C on Mac) No line numbers will be copied.
Media Info

6th December 2018 04:27:20 AM
  1. Format                      : Matroska
  2. Format version              : Version 4 / Version 2
  3. File size                   : 753 MiB
  4. Duration                    : 1 h 52 min
  5. Overall bit rate            : 940 kb/s
  6. Movie name                  : Venom.2018.720p.BRRip.HEVC.MkvCage.ws
  7. Encoded date                : UTC 2018-12-06 04:01:27
  8. Writing application         : mkvmerge v28.1.0 ('Morning Child') 32-bit
  9. Writing library             : libebml v1.3.6 + libmatroska v1.4.9
  10.  
  11. Video
  12. ID                          : 2
  13. Format                      : HEVC
  14. Format/Info                 : High Efficiency Video Coding
  15. Format profile              : [email protected]@Main
  16. Codec ID                    : V_MPEGH/ISO/HEVC
  17. Duration                    : 1 h 52 min
  18. Bit rate                    : 874 kb/s
  19. Width                       : 1 280 pixels
  20. Height                      : 534 pixels
  21. Display aspect ratio        : 2.40:1
  22. Original display aspect rat : 2.40:1
  23. Frame rate mode             : Constant
  24. Frame rate                  : 23.976 (24000/1001) FPS
  25. Color space                 : YUV
  26. Chroma subsampling          : 4:2:0
  27. Bit depth                   : 8 bits
  28. Bits/(Pixel*Frame)          : 0.053
  29. Stream size                 : 701 MiB (93%)
  30. Writing library             : x265 2.6:[Windows][GCC 7.3.0][64 bit] 8bit+10bit+12bit
  31. Encoding settings           : cpuid=1173503 / frame-threads=5 / numa-pools=24,24 / wpp / no-pmode / no-pme / no-psnr / no-ssim / log-level=2 / input-csp=1 / input-res=1280x534 / interlace=0 / total-frames=0 / level-idc=0 / high-tier=1 / uhd-bd=0 / ref=3 / no-allow-non-conformance / no-repeat-headers / annexb / no-aud / no-hrd / info / hash=0 / no-temporal-layers / open-gop / min-keyint=24 / keyint=240 / bframes=4 / b-adapt=0 / b-pyramid / bframe-bias=0 / rc-lookahead=15 / lookahead-slices=0 / scenecut=40 / no-intra-refresh / ctu=64 / min-cu-size=8 / no-rect / no-amp / max-tu-size=32 / tu-inter-depth=1 / tu-intra-depth=1 / limit-tu=0 / rdoq-level=0 / dynamic-rd=0.00 / no-ssim-rd / signhide / no-tskip / nr-intra=0 / nr-inter=0 / no-constrained-intra / strong-intra-smoothing / max-merge=2 / limit-refs=3 / no-limit-modes / me=1 / subme=2 / merange=57 / temporal-mvp / weightp / no-weightb / no-analyze-src-pics / deblock=0:0 / sao / no-sao-non-deblock / rd=2 / no-early-skip / rskip / fast-intra / no-tskip-fast / no-cu-lossless / no-b-intra / no-splitrd-skip / rdpenalty=0 / psy-rd=2.00 / psy-rdoq=0.00 / no-rd-refine / analysis-reuse-mode=0 / no-lossless / cbqpoffs=0 / crqpoffs=0 / rc=abr / bitrate=873 / qcomp=0.60 / qpstep=4 / stats-write=0 / stats-read=2 / cplxblur=20.0 / qblur=0.5 / ipratio=1.40 / pbratio=1.30 / aq-mode=1 / aq-strength=1.00 / cutree / zone-count=0 / no-strict-cbr / qg-size=32 / no-rc-grain / qpmax=69 / qpmin=0 / no-const-vbv / sar=255 / sar-width / : / sar-height=801:800 / overscan=0 / videoformat=5 / range=0 / colorprim=1 / transfer=1 / colormatrix=1 / chromaloc=0 / display-window=0 / max-cll=0,0 / min-luma=0 / max-luma=255 / log2-max-poc-lsb=8 / vui-timing-info / vui-hrd-info / slices=1 / no-opt-qp-pps / no-opt-ref-list-length-pps / no-multi-pass-opt-rps / scenecut-bias=0.05 / no-opt-cu-delta-qp / no-aq-motion / no-hdr / no-hdr-opt / no-dhdr10-opt / analysis-reuse-level=5 / scale-factor=0 / refine-intra=0 / refine-inter=0 / refine-mv=0 / no-limit-sao / ctu-info=0 / no-lowpass-dct / refine-mv-type=0 / copy-pic=1
  32. Default                     : Yes
  33. Forced                      : No
  34. Color range                 : Limited
  35. Color primaries             : BT.709
  36. Transfer characteristics    : BT.709
  37. Matrix coefficients         : BT.709
  38.  
  39. Audio
  40. ID                          : 3
  41. Format                      : AAC
  42. Format/Info                 : Advanced Audio Codec
  43. Format profile              : HE-AAC / LC
  44. Format settings             : Explicit
  45. Codec ID                    : A_AAC-2
  46. Duration                    : 1 h 52 min
  47. Bit rate                    : 64.0 kb/s
  48. Channel(s)                  : 2 channels
  49. Channel positions           : Front: L R
  50. Sampling rate               : 48.0 kHz / 24.0 kHz
  51. Frame rate                  : 23.438 FPS (1024 SPF)
  52. Compression mode            : Lossy
  53. Delay relative to video     : 31 ms
  54. Stream size                 : 51.3 MiB (7%)
  55. Default                     : Yes
  56. Forced                      : No
  57.  
  58. Text
  59. ID                          : 1
  60. Format                      : UTF-8
  61. Codec ID                    : S_TEXT/UTF8
  62. Codec ID/Info               : UTF-8 Plain Text
  63. Duration                    : 1 h 49 min
  64. Bit rate                    : 56 b/s
  65. Count of elements           : 1397
  66. Stream size                 : 45.1 KiB (0%)
  67. Language                    : English
  68. Default                     : Yes
  69. Forced                      : No
  70.  
  71. Menu
  72. 00:00:00.000                : :Chapter 1
  73. 00:09:59.599                : :Chapter 2
  74. 00:14:59.941                : :Chapter 3
  75. 00:19:59.198                : :Chapter 4
  76. 00:25:00.499                : :Chapter 5
  77. 00:29:59.840                : :Chapter 6
  78. 00:35:00.098                : :Chapter 7
  79. 00:39:59.522                : :Chapter 8
  80. 00:44:59.780                : :Chapter 9
  81. 00:50:01.165                : :Chapter 10
  82. 00:55:00.297                : :Chapter 11
  83. 00:59:59.596                : :Chapter 12
  84. 01:06:15.972                : :Chapter 13
  85. 01:14:17.453                : :Chapter 14
  86. 01:24:35.070                : :Chapter 15
  87. 01:33:32.690                : :Chapter 16
  88. 01:40:39.075                : :Chapter 17
  89. 01:47:17.473                : :Chapter 18