>
The text below is selected, press Ctrl+C to copy to your clipboard. (⌘+C on Mac) No line numbers will be copied.
MediaInfo

6th December 2018 02:40:04 PM
  1. Format                      : Matroska
  2. Format version              : Version 4 / Version 2
  3. File size                   : 702 MiB
  4. Duration                    : 1 h 28 min
  5. Overall bit rate            : 1 114 kb/s
  6. Movie name                  : Fanged.Up.2018.720p.AMZN.WEB-DL.MkvCage.ws
  7. Encoded date                : UTC 2018-12-06 14:37:28
  8. Writing application         : mkvmerge v28.2.0 ('The Awakening') 64-bit
  9. Writing library             : libebml v1.3.6 + libmatroska v1.4.9
  10.  
  11. Video
  12. ID                          : 2
  13. Format                      : AVC
  14. Format/Info                 : Advanced Video Codec
  15. Format profile              : [email protected]
  16. Format settings             : CABAC / 8 Ref Frames
  17. Format settings, CABAC      : Yes
  18. Format settings, ReFrames   : 8 frames
  19. Codec ID                    : V_MPEG4/ISO/AVC
  20. Duration                    : 1 h 28 min
  21. Bit rate                    : 1 049 kb/s
  22. Width                       : 1 280 pixels
  23. Height                      : 544 pixels
  24. Display aspect ratio        : 2.35:1
  25. Original display aspect rat : 2.35:1
  26. Frame rate mode             : Constant
  27. Frame rate                  : 24.000 FPS
  28. Color space                 : YUV
  29. Chroma subsampling          : 4:2:0
  30. Bit depth                   : 8 bits
  31. Scan type                   : Progressive
  32. Bits/(Pixel*Frame)          : 0.063
  33. Stream size                 : 661 MiB (94%)
  34. Writing library             : x264 core 155 r2893 b00bcaf
  35. Encoding settings           : cabac=1 / ref=8 / deblock=1:0:0 / analyse=0x3:0x133 / me=umh / subme=9 / psy=1 / psy_rd=1.00:0.00 / mixed_ref=1 / me_range=16 / chroma_me=1 / trellis=2 / 8x8dct=1 / cqm=0 / deadzone=21,11 / fast_pskip=1 / chroma_qp_offset=-2 / threads=17 / lookahead_threads=1 / sliced_threads=0 / nr=0 / decimate=1 / interlaced=0 / bluray_compat=0 / constrained_intra=0 / bframes=3 / b_pyramid=2 / b_adapt=2 / b_bias=0 / direct=3 / weightb=1 / open_gop=0 / weightp=2 / keyint=240 / keyint_min=24 / scenecut=40 / intra_refresh=0 / rc_lookahead=60 / rc=2pass / mbtree=1 / bitrate=1049 / ratetol=1.0 / qcomp=0.60 / qpmin=0 / qpmax=69 / qpstep=4 / cplxblur=20.0 / qblur=0.5 / vbv_maxrate=62500 / vbv_bufsize=78125 / nal_hrd=none / filler=0 / ip_ratio=1.40 / aq=1:1.00
  36. Default                     : Yes
  37. Forced                      : No
  38. Color range                 : Limited
  39. Color primaries             : BT.709
  40. Transfer characteristics    : BT.709
  41. Matrix coefficients         : BT.709
  42.  
  43. Audio
  44. ID                          : 1
  45. Format                      : AAC
  46. Format/Info                 : Advanced Audio Codec
  47. Format profile              : HE-AAC / LC
  48. Format settings             : Explicit
  49. Codec ID                    : A_AAC-2
  50. Duration                    : 1 h 28 min
  51. Bit rate                    : 64.0 kb/s
  52. Channel(s)                  : 2 channels
  53. Channel positions           : Front: L R
  54. Sampling rate               : 48.0 kHz / 24.0 kHz
  55. Frame rate                  : 23.438 FPS (1024 SPF)
  56. Compression mode            : Lossy
  57. Delay relative to video     : 31 ms
  58. Stream size                 : 40.3 MiB (6%)
  59. Language                    : English
  60. Default                     : Yes
  61. Forced                      : No