>
The text below is selected, press Ctrl+C to copy to your clipboard. (⌘+C on Mac) No line numbers will be copied.
MediaInfo

8th January 2019 07:08:07 AM | Views: 13
  1. Format                      : Matroska
  2. Format version              : Version 4 / Version 2
  3. File size                   : 1.04 GiB
  4. Duration                    : 2 h 13 min
  5. Overall bit rate            : 1 110 kb/s
  6. Movie name                  : The.Hate.U.Give.2018.720p.WEB-DL.MkvCage.ws
  7. Encoded date                : UTC 2019-01-08 07:05:35
  8. Writing application         : mkvmerge v30.0.0 ('Interstellar') 64-bit
  9. Writing library             : libebml v1.3.6 + libmatroska v1.4.9
  10.  
  11. Video
  12. ID                          : 2
  13. Format                      : AVC
  14. Format/Info                 : Advanced Video Codec
  15. Format profile              : [email protected]
  16. Format settings             : CABAC / 5 Ref Frames
  17. Format settings, CABAC      : Yes
  18. Format settings, ReFrames   : 5 frames
  19. Codec ID                    : V_MPEG4/ISO/AVC
  20. Duration                    : 2 h 13 min
  21. Bit rate                    : 1 045 kb/s
  22. Width                       : 1 280 pixels
  23. Height                      : 534 pixels
  24. Display aspect ratio        : 2.40:1
  25. Frame rate mode             : Constant
  26. Frame rate                  : 23.976 (24000/1001) FPS
  27. Color space                 : YUV
  28. Chroma subsampling          : 4:2:0
  29. Bit depth                   : 8 bits
  30. Scan type                   : Progressive
  31. Bits/(Pixel*Frame)          : 0.064
  32. Stream size                 : 998 MiB (94%)
  33. Writing library             : x264 core 157 r2935 545de2f
  34. Encoding settings           : cabac=1 / ref=5 / deblock=1:0:0 / analyse=0x3:0x113 / me=hex / subme=8 / psy=1 / psy_rd=1.00:0.00 / mixed_ref=1 / me_range=16 / chroma_me=1 / trellis=2 / 8x8dct=1 / cqm=0 / deadzone=21,11 / fast_pskip=1 / chroma_qp_offset=-2 / threads=17 / lookahead_threads=2 / sliced_threads=0 / nr=0 / decimate=1 / interlaced=0 / bluray_compat=0 / constrained_intra=0 / bframes=3 / b_pyramid=2 / b_adapt=1 / b_bias=0 / direct=3 / weightb=1 / open_gop=0 / weightp=2 / keyint=240 / keyint_min=24 / scenecut=40 / intra_refresh=0 / rc_lookahead=50 / rc=2pass / mbtree=1 / bitrate=1045 / ratetol=1.0 / qcomp=0.60 / qpmin=0 / qpmax=69 / qpstep=4 / cplxblur=20.0 / qblur=0.5 / vbv_maxrate=62500 / vbv_bufsize=78125 / nal_hrd=none / filler=0 / ip_ratio=1.40 / aq=1:1.00
  35. Default                     : Yes
  36. Forced                      : No
  37. Color range                 : Limited
  38. Color primaries             : BT.709
  39. Transfer characteristics    : BT.709
  40. Matrix coefficients         : BT.709
  41.  
  42. Audio
  43. ID                          : 1
  44. Format                      : AAC
  45. Format/Info                 : Advanced Audio Codec
  46. Format profile              : HE-AAC / LC
  47. Format settings             : Explicit
  48. Codec ID                    : A_AAC-2
  49. Duration                    : 2 h 13 min
  50. Bit rate                    : 64.0 kb/s
  51. Channel(s)                  : 2 channels
  52. Channel positions           : Front: L R
  53. Sampling rate               : 48.0 kHz / 24.0 kHz
  54. Frame rate                  : 23.438 FPS (1024 SPF)
  55. Compression mode            : Lossy
  56. Delay relative to video     : 31 ms
  57. Stream size                 : 60.9 MiB (6%)
  58. Language                    : English
  59. Default                     : Yes
  60. Forced                      : No
  61.  
  62. Menu
  63. 00:00:00.000                : :Chapter 1
  64. 00:03:55.736                : :Chapter 2
  65. 00:08:18.039                : :Chapter 3
  66. 00:13:14.210                : :Chapter 4
  67. 00:19:32.088                : :Chapter 5
  68. 00:24:48.278                : :Chapter 6
  69. 00:29:34.273                : :Chapter 7
  70. 00:34:54.175                : :Chapter 8
  71. 00:40:09.490                : :Chapter 9
  72. 00:45:05.369                : :Chapter 10
  73. 00:50:09.173                : :Chapter 11
  74. 00:58:27.546                : :Chapter 12
  75. 01:03:58.335                : :Chapter 13
  76. 01:10:00.947                : :Chapter 14
  77. 01:14:51.237                : :Chapter 15
  78. 01:19:50.744                : :Chapter 16
  79. 01:27:09.558                : :Chapter 17
  80. 01:32:11.651                : :Chapter 18
  81. 01:37:36.184                : :Chapter 19
  82. 01:43:59.024                : :Chapter 20
  83. 01:49:39.114                : :Chapter 21
  84. 01:56:20.390                : :Chapter 22
  85. 01:58:00.115                : :Chapter 23
  86. 02:03:50.924                : :Chapter 24