>
The text below is selected, press Ctrl+C to copy to your clipboard. (⌘+C on Mac) No line numbers will be copied.
MediaInfo

8th January 2019 07:54:03 AM | Views: 10
  1. Format                      : Matroska
  2. Format version              : Version 4 / Version 2
  3. File size                   : 753 MiB
  4. Duration                    : 1 h 35 min
  5. Overall bit rate            : 1 105 kb/s
  6. Movie name                  : Summer.03.2018.720p.WEB-DL.MkvCage.ws
  7. Encoded date                : UTC 2019-01-08 07:48:58
  8. Writing application         : mkvmerge v30.1.0 ('Forever And More') 64-bit
  9. Writing library             : libebml v1.3.6 + libmatroska v1.4.9
  10.  
  11. Video
  12. ID                          : 2
  13. Format                      : AVC
  14. Format/Info                 : Advanced Video Codec
  15. Format profile              : [email protected]
  16. Format settings             : CABAC / 5 Ref Frames
  17. Format settings, CABAC      : Yes
  18. Format settings, ReFrames   : 5 frames
  19. Codec ID                    : V_MPEG4/ISO/AVC
  20. Duration                    : 1 h 35 min
  21. Bit rate                    : 1 040 kb/s
  22. Width                       : 1 280 pixels
  23. Height                      : 610 pixels
  24. Display aspect ratio        : 2.100
  25. Original display aspect rat : 2.101
  26. Frame rate mode             : Constant
  27. Frame rate                  : 23.976 (24000/1001) FPS
  28. Color space                 : YUV
  29. Chroma subsampling          : 4:2:0
  30. Bit depth                   : 8 bits
  31. Scan type                   : Progressive
  32. Bits/(Pixel*Frame)          : 0.056
  33. Stream size                 : 708 MiB (94%)
  34. Writing library             : x264 core 155 r2901 7d0ff22
  35. Encoding settings           : cabac=1 / ref=5 / deblock=1:0:0 / analyse=0x3:0x113 / me=hex / subme=8 / psy=1 / psy_rd=1.00:0.00 / mixed_ref=1 / me_range=16 / chroma_me=1 / trellis=2 / 8x8dct=1 / cqm=0 / deadzone=21,11 / fast_pskip=1 / chroma_qp_offset=-2 / threads=19 / lookahead_threads=3 / sliced_threads=0 / nr=0 / decimate=1 / interlaced=0 / bluray_compat=0 / constrained_intra=0 / bframes=3 / b_pyramid=2 / b_adapt=1 / b_bias=0 / direct=3 / weightb=1 / open_gop=0 / weightp=2 / keyint=240 / keyint_min=24 / scenecut=40 / intra_refresh=0 / rc_lookahead=50 / rc=2pass / mbtree=1 / bitrate=1040 / ratetol=1.0 / qcomp=0.60 / qpmin=0 / qpmax=69 / qpstep=4 / cplxblur=20.0 / qblur=0.5 / vbv_maxrate=62500 / vbv_bufsize=78125 / nal_hrd=none / filler=0 / ip_ratio=1.40 / aq=1:1.00
  36. Default                     : Yes
  37. Forced                      : No
  38. Color range                 : Limited
  39. Color primaries             : BT.709
  40. Transfer characteristics    : BT.709
  41. Matrix coefficients         : BT.709
  42.  
  43. Audio
  44. ID                          : 1
  45. Format                      : AAC
  46. Format/Info                 : Advanced Audio Codec
  47. Format profile              : HE-AAC / LC
  48. Format settings             : Explicit
  49. Codec ID                    : A_AAC-2
  50. Duration                    : 1 h 35 min
  51. Bit rate                    : 64.0 kb/s
  52. Channel(s)                  : 2 channels
  53. Channel positions           : Front: L R
  54. Sampling rate               : 48.0 kHz / 24.0 kHz
  55. Frame rate                  : 23.438 FPS (1024 SPF)
  56. Compression mode            : Lossy
  57. Delay relative to video     : 31 ms
  58. Stream size                 : 43.6 MiB (6%)
  59. Language                    : English
  60. Default                     : Yes
  61. Forced                      : No
  62.  
  63. Menu
  64. 00:00:00.000                : :1
  65. 00:02:42.037                : :2
  66. 00:11:25.059                : :3
  67. 00:21:23.032                : :4
  68. 00:29:50.080                : :5
  69. 00:39:34.038                : :6
  70. 00:49:10.072                : :7
  71. 00:58:05.023                : :8
  72. 01:06:34.032                : :9
  73. 01:14:56.075                : :10
  74. 01:24:36.071                : :11
  75. 01:30:59.079                : :12