>
The text below is selected, press Ctrl+C to copy to your clipboard. (⌘+C on Mac) No line numbers will be copied.
MediaInfo

10th January 2019 02:35:38 PM
  1. Format                      : Matroska
  2. Format version              : Version 4 / Version 2
  3. File size                   : 1.06 GiB
  4. Duration                    : 1 h 59 min
  5. Overall bit rate            : 1 272 kb/s
  6. Movie name                  : The.Captain.2017.720p.BRRip.x264.MkvCage.ws
  7. Encoded date                : UTC 2019-01-10 14:31:23
  8. Writing application         : mkvmerge v30.0.0 ('Interstellar') 64-bit
  9. Writing library             : libebml v1.3.6 + libmatroska v1.4.9
  10.  
  11. Video
  12. ID                          : 2
  13. Format                      : AVC
  14. Format/Info                 : Advanced Video Codec
  15. Format profile              : [email protected]
  16. Format settings             : CABAC / 9 Ref Frames
  17. Format settings, CABAC      : Yes
  18. Format settings, ReFrames   : 9 frames
  19. Codec ID                    : V_MPEG4/ISO/AVC
  20. Duration                    : 1 h 59 min
  21. Bit rate                    : 1 170 kb/s
  22. Width                       : 1 280 pixels
  23. Height                      : 536 pixels
  24. Display aspect ratio        : 2.40:1
  25. Frame rate mode             : Constant
  26. Frame rate                  : 24.000 FPS
  27. Color space                 : YUV
  28. Chroma subsampling          : 4:2:0
  29. Bit depth                   : 8 bits
  30. Scan type                   : Progressive
  31. Bits/(Pixel*Frame)          : 0.071
  32. Stream size                 : 999 MiB (92%)
  33. Writing library             : x264 core 155 r2901 7d0ff22
  34. Encoding settings           : cabac=1 / ref=9 / deblock=1:-1:-1 / analyse=0x3:0x133 / me=umh / subme=10 / psy=1 / psy_rd=1.00:0.00 / mixed_ref=1 / me_range=24 / chroma_me=1 / trellis=2 / 8x8dct=1 / cqm=0 / deadzone=21,11 / fast_pskip=1 / chroma_qp_offset=-2 / threads=17 / lookahead_threads=1 / sliced_threads=0 / nr=0 / decimate=1 / interlaced=0 / bluray_compat=0 / constrained_intra=0 / bframes=6 / b_pyramid=2 / b_adapt=2 / b_bias=0 / direct=3 / weightb=1 / open_gop=0 / weightp=2 / keyint=240 / keyint_min=24 / scenecut=40 / intra_refresh=0 / rc_lookahead=60 / rc=2pass / mbtree=1 / bitrate=1170 / ratetol=1.0 / qcomp=0.60 / qpmin=0 / qpmax=69 / qpstep=4 / cplxblur=20.0 / qblur=0.5 / vbv_maxrate=62500 / vbv_bufsize=78125 / nal_hrd=none / filler=0 / ip_ratio=1.40 / aq=1:1.00
  35. Default                     : Yes
  36. Forced                      : No
  37.  
  38. Audio
  39. ID                          : 1
  40. Format                      : AAC
  41. Format/Info                 : Advanced Audio Codec
  42. Format profile              : HE-AAC / LC
  43. Format settings             : Explicit
  44. Codec ID                    : A_AAC-2
  45. Duration                    : 1 h 59 min
  46. Bit rate                    : 100.0 kb/s
  47. Channel(s)                  : 2 channels
  48. Channel positions           : Front: L R
  49. Sampling rate               : 48.0 kHz / 24.0 kHz
  50. Frame rate                  : 23.438 FPS (1024 SPF)
  51. Compression mode            : Lossy
  52. Delay relative to video     : 31 ms
  53. Stream size                 : 85.4 MiB (8%)
  54. Language                    : German
  55. Default                     : Yes
  56. Forced                      : No
  57.  
  58. Text
  59. ID                          : 3
  60. Format                      : UTF-8
  61. Codec ID                    : S_TEXT/UTF8
  62. Codec ID/Info               : UTF-8 Plain Text
  63. Duration                    : 1 h 54 min
  64. Bit rate                    : 31 b/s
  65. Count of elements           : 812
  66. Stream size                 : 26.4 KiB (0%)
  67. Language                    : English
  68. Default                     : Yes
  69. Forced                      : No
  70.  
  71. Menu
  72. 00:00:00.000                : en:Chapter 01
  73. 00:07:16.792                : en:Chapter 02
  74. 00:16:22.125                : en:Chapter 03
  75. 00:24:26.667                : en:Chapter 04
  76. 00:31:22.583                : en:Chapter 05
  77. 00:39:08.833                : en:Chapter 06
  78. 00:46:21.292                : en:Chapter 07
  79. 00:52:05.750                : en:Chapter 08
  80. 01:02:44.958                : en:Chapter 09
  81. 01:08:40.792                : en:Chapter 10
  82. 01:15:04.917                : en:Chapter 11
  83. 01:26:20.667                : en:Chapter 12
  84. 01:32:54.417                : en:Chapter 13
  85. 01:39:57.958                : en:Chapter 14
  86. 01:48:49.375                : en:Chapter 15
  87. 01:54:46.875                : en:Chapter 16