>
The text below is selected, press Ctrl+C to copy to your clipboard. (⌘+C on Mac) No line numbers will be copied.
MediaInfo

11th January 2019 09:30:53 AM
  1. Format                                   : Matroska
  2. Format version                           : Version 4
  3. File size                                : 806 MiB
  4. Duration                                 : 1 h 38 min
  5. Overall bit rate                         : 1 142 kb/s
  6. Movie name                               : The.Last.Laugh.2018.720p.NF.WEB-DL.MkvCage.ws
  7. Encoded date                             : UTC 2019-01-11 09:29:27
  8. Writing application                      : mkvmerge v30.1.0 ('Forever And More') 64-bit
  9. Writing library                          : libebml v1.3.6 + libmatroska v1.4.9
  10.  
  11. Video
  12. ID                                       : 37
  13. Format                                   : AVC
  14. Format/Info                              : Advanced Video Codec
  15. Format profile                           : [email protected]
  16. Format settings                          : CABAC / 5 Ref Frames
  17. Format settings, CABAC                   : Yes
  18. Format settings, RefFrames               : 5 frames
  19. Codec ID                                 : V_MPEG4/ISO/AVC
  20. Duration                                 : 1 h 38 min
  21. Bit rate                                 : 1 073 kb/s
  22. Width                                    : 1 280 pixels
  23. Height                                   : 692 pixels
  24. Display aspect ratio                     : 1.85:1
  25. Frame rate mode                          : Constant
  26. Frame rate                               : 23.976 (24000/1001) FPS
  27. Color space                              : YUV
  28. Chroma subsampling                       : 4:2:0
  29. Bit depth                                : 8 bits
  30. Scan type                                : Progressive
  31. Bits/(Pixel*Frame)                       : 0.051
  32. Stream size                              : 757 MiB (94%)
  33. Writing library                          : x264 core 155 r2901 7d0ff22
  34. Encoding settings                        : cabac=1 / ref=5 / deblock=1:0:0 / analyse=0x3:0x113 / me=hex / subme=8 / psy=1 / psy_rd=1.00:0.00 / mixed_ref=1 / me_range=16 / chroma_me=1 / trellis=2 / 8x8dct=1 / cqm=0 / deadzone=21,11 / fast_pskip=1 / chroma_qp_offset=-2 / threads=22 / lookahead_threads=3 / sliced_threads=0 / nr=0 / decimate=1 / interlaced=0 / bluray_compat=0 / constrained_intra=0 / bframes=3 / b_pyramid=2 / b_adapt=1 / b_bias=0 / direct=3 / weightb=1 / open_gop=0 / weightp=2 / keyint=240 / keyint_min=24 / scenecut=40 / intra_refresh=0 / rc_lookahead=50 / rc=2pass / mbtree=1 / bitrate=1073 / ratetol=1.0 / qcomp=0.60 / qpmin=0 / qpmax=69 / qpstep=4 / cplxblur=20.0 / qblur=0.5 / vbv_maxrate=62500 / vbv_bufsize=78125 / nal_hrd=none / filler=0 / ip_ratio=1.40 / aq=1:1.00
  35. Default                                  : Yes
  36. Forced                                   : No
  37. Color range                              : Limited
  38. Color primaries                          : BT.709
  39. Transfer characteristics                 : BT.709
  40. Matrix coefficients                      : BT.709
  41.  
  42. Audio
  43. ID                                       : 1
  44. Format                                   : AAC LC SBR
  45. Format/Info                              : Advanced Audio Codec Low Complexity with Spectral Band Replication
  46. Commercial name                          : HE-AAC
  47. Format settings                          : Explicit
  48. Codec ID                                 : A_AAC-2
  49. Duration                                 : 1 h 38 min
  50. Bit rate                                 : 64.0 kb/s
  51. Channel(s)                               : 2 channels
  52. Channel layout                           : L R
  53. Sampling rate                            : 48.0 kHz
  54. Frame rate                               : 23.438 FPS (2048 SPF)
  55. Compression mode                         : Lossy
  56. Delay relative to video                  : 31 ms
  57. Stream size                              : 45.2 MiB (6%)
  58. Language                                 : English
  59. Default                                  : Yes
  60. Forced                                   : No
  61.  
  62. Text #1
  63. ID                                       : 2
  64. Format                                   : UTF-8
  65. Codec ID                                 : S_TEXT/UTF8
  66. Codec ID/Info                            : UTF-8 Plain Text
  67. Duration                                 : 1 h 32 min
  68. Bit rate                                 : 64 b/s
  69. Count of elements                        : 1349
  70. Stream size                              : 43.5 KiB (0%)
  71. Title                                    : English [SDH]
  72. Language                                 : English
  73. Default                                  : No
  74. Forced                                   : No
  75.  
  76. Text #2
  77. ID                                       : 3
  78. Format                                   : UTF-8
  79. Codec ID                                 : S_TEXT/UTF8
  80. Codec ID/Info                            : UTF-8 Plain Text
  81. Duration                                 : 1 h 32 min
  82. Bit rate                                 : 3 b/s
  83. Count of elements                        : 75
  84. Stream size                              : 2.17 KiB (0%)
  85. Title                                    : Castilian [Forced]
  86. Language                                 : Spanish
  87. Default                                  : No
  88. Forced                                   : Yes
  89.  
  90. Text #3
  91. ID                                       : 4
  92. Format                                   : UTF-8
  93. Codec ID                                 : S_TEXT/UTF8
  94. Codec ID/Info                            : UTF-8 Plain Text
  95. Duration                                 : 1 h 37 min
  96. Bit rate                                 : 53 b/s
  97. Count of elements                        : 1245
  98. Stream size                              : 38.4 KiB (0%)
  99. Title                                    : Castilian [Full]
  100. Language                                 : Spanish
  101. Default                                  : No
  102. Forced                                   : No
  103.  
  104. Text #4
  105. ID                                       : 5
  106. Format                                   : UTF-8
  107. Codec ID                                 : S_TEXT/UTF8
  108. Codec ID/Info                            : UTF-8 Plain Text
  109. Duration                                 : 1 h 37 min
  110. Bit rate                                 : 5 b/s
  111. Count of elements                        : 120
  112. Stream size                              : 4.14 KiB (0%)
  113. Title                                    : Spanish [Forced]
  114. Language                                 : Spanish
  115. Default                                  : No
  116. Forced                                   : Yes
  117.  
  118. Text #5
  119. ID                                       : 6
  120. Format                                   : UTF-8
  121. Codec ID                                 : S_TEXT/UTF8
  122. Codec ID/Info                            : UTF-8 Plain Text
  123. Duration                                 : 1 h 37 min
  124. Bit rate                                 : 51 b/s
  125. Count of elements                        : 1318
  126. Stream size                              : 37.1 KiB (0%)
  127. Title                                    : Spanish [Full]
  128. Language                                 : Spanish
  129. Default                                  : No
  130. Forced                                   : No
  131.  
  132. Text #6
  133. ID                                       : 7
  134. Format                                   : UTF-8
  135. Codec ID                                 : S_TEXT/UTF8
  136. Codec ID/Info                            : UTF-8 Plain Text
  137. Duration                                 : 1 h 32 min
  138. Bit rate                                 : 3 b/s
  139. Count of elements                        : 81
  140. Stream size                              : 2.38 KiB (0%)
  141. Title                                    : French [Forced]
  142. Language                                 : French
  143. Default                                  : No
  144. Forced                                   : Yes
  145.  
  146. Text #7
  147. ID                                       : 8
  148. Format                                   : UTF-8
  149. Codec ID                                 : S_TEXT/UTF8
  150. Codec ID/Info                            : UTF-8 Plain Text
  151. Duration                                 : 1 h 37 min
  152. Bit rate                                 : 61 b/s
  153. Count of elements                        : 1334
  154. Stream size                              : 43.7 KiB (0%)
  155. Title                                    : French [Full]
  156. Language                                 : French
  157. Default                                  : No
  158. Forced                                   : No
  159.  
  160. Text #8
  161. ID                                       : 9
  162. Format                                   : UTF-8
  163. Codec ID                                 : S_TEXT/UTF8
  164. Codec ID/Info                            : UTF-8 Plain Text
  165. Duration                                 : 1 h 32 min
  166. Bit rate                                 : 3 b/s
  167. Count of elements                        : 79
  168. Stream size                              : 2.57 KiB (0%)
  169. Title                                    : German [Forced]
  170. Language                                 : German
  171. Default                                  : No
  172. Forced                                   : Yes
  173.  
  174. Text #9
  175. ID                                       : 10
  176. Format                                   : UTF-8
  177. Codec ID                                 : S_TEXT/UTF8
  178. Codec ID/Info                            : UTF-8 Plain Text
  179. Duration                                 : 1 h 32 min
  180. Bit rate                                 : 65 b/s
  181. Count of elements                        : 1332
  182. Stream size                              : 44.2 KiB (0%)
  183. Title                                    : German [Full]
  184. Language                                 : German
  185. Default                                  : No
  186. Forced                                   : No
  187.  
  188. Text #10
  189. ID                                       : 11
  190. Format                                   : UTF-8
  191. Codec ID                                 : S_TEXT/UTF8
  192. Codec ID/Info                            : UTF-8 Plain Text
  193. Duration                                 : 1 h 32 min
  194. Bit rate                                 : 3 b/s
  195. Count of elements                        : 85
  196. Stream size                              : 2.44 KiB (0%)
  197. Title                                    : Italian [Forced]
  198. Language                                 : Italian
  199. Default                                  : No
  200. Forced                                   : Yes
  201.  
  202. Text #11
  203. ID                                       : 12
  204. Format                                   : UTF-8
  205. Codec ID                                 : S_TEXT/UTF8
  206. Codec ID/Info                            : UTF-8 Plain Text
  207. Duration                                 : 1 h 37 min
  208. Bit rate                                 : 54 b/s
  209. Count of elements                        : 1338
  210. Stream size                              : 39.3 KiB (0%)
  211. Title                                    : Italian [Full]
  212. Language                                 : Italian
  213. Default                                  : No
  214. Forced                                   : No
  215.  
  216. Text #12
  217. ID                                       : 13
  218. Format                                   : UTF-8
  219. Codec ID                                 : S_TEXT/UTF8
  220. Codec ID/Info                            : UTF-8 Plain Text
  221. Duration                                 : 1 h 37 min
  222. Bit rate                                 : 59 b/s
  223. Count of elements                        : 1334
  224. Stream size                              : 42.5 KiB (0%)
  225. Title                                    : Portuguese [Full]
  226. Language                                 : Portuguese
  227. Default                                  : No
  228. Forced                                   : No
  229.  
  230. Text #13
  231. ID                                       : 14
  232. Format                                   : UTF-8
  233. Codec ID                                 : S_TEXT/UTF8
  234. Codec ID/Info                            : UTF-8 Plain Text
  235. Duration                                 : 1 h 32 min
  236. Bit rate                                 : 3 b/s
  237. Count of elements                        : 95
  238. Stream size                              : 2.62 KiB (0%)
  239. Title                                    : Brazilian Portuguese [Forced]
  240. Language                                 : Portuguese
  241. Default                                  : No
  242. Forced                                   : Yes
  243.  
  244. Text #14
  245. ID                                       : 15
  246. Format                                   : UTF-8
  247. Codec ID                                 : S_TEXT/UTF8
  248. Codec ID/Info                            : UTF-8 Plain Text
  249. Duration                                 : 1 h 32 min
  250. Bit rate                                 : 61 b/s
  251. Count of elements                        : 1388
  252. Stream size                              : 41.5 KiB (0%)
  253. Title                                    : Brazilian Portuguese [Full]
  254. Language                                 : Portuguese
  255. Default                                  : No
  256. Forced                                   : No
  257.  
  258. Text #15
  259. ID                                       : 16
  260. Format                                   : UTF-8
  261. Codec ID                                 : S_TEXT/UTF8
  262. Codec ID/Info                            : UTF-8 Plain Text
  263. Duration                                 : 1 h 32 min
  264. Bit rate                                 : 3 b/s
  265. Count of elements                        : 77
  266. Stream size                              : 2.16 KiB (0%)
  267. Title                                    : Polish [Forced]
  268. Language                                 : Polish
  269. Default                                  : No
  270. Forced                                   : Yes
  271.  
  272. Text #16
  273. ID                                       : 17
  274. Format                                   : UTF-8
  275. Codec ID                                 : S_TEXT/UTF8
  276. Codec ID/Info                            : UTF-8 Plain Text
  277. Duration                                 : 1 h 37 min
  278. Bit rate                                 : 47 b/s
  279. Count of elements                        : 1216
  280. Stream size                              : 34.3 KiB (0%)
  281. Title                                    : Polish [Full]
  282. Language                                 : Polish
  283. Default                                  : No
  284. Forced                                   : No
  285.  
  286. Text #17
  287. ID                                       : 18
  288. Format                                   : UTF-8
  289. Codec ID                                 : S_TEXT/UTF8
  290. Codec ID/Info                            : UTF-8 Plain Text
  291. Duration                                 : 1 h 32 min
  292. Bit rate                                 : 3 b/s
  293. Count of elements                        : 78
  294. Stream size                              : 2.25 KiB (0%)
  295. Title                                    : Turkish [Forced]
  296. Language                                 : Turkish
  297. Default                                  : No
  298. Forced                                   : Yes
  299.  
  300. Text #18
  301. ID                                       : 19
  302. Format                                   : UTF-8
  303. Codec ID                                 : S_TEXT/UTF8
  304. Codec ID/Info                            : UTF-8 Plain Text
  305. Duration                                 : 1 h 37 min
  306. Bit rate                                 : 56 b/s
  307. Count of elements                        : 1331
  308. Stream size                              : 40.8 KiB (0%)
  309. Title                                    : Turkish [Full]
  310. Language                                 : Turkish
  311. Default                                  : No
  312. Forced                                   : No
  313.  
  314. Text #19
  315. ID                                       : 20
  316. Format                                   : UTF-8
  317. Codec ID                                 : S_TEXT/UTF8
  318. Codec ID/Info                            : UTF-8 Plain Text
  319. Duration                                 : 1 h 37 min
  320. Bit rate                                 : 57 b/s
  321. Count of elements                        : 1072
  322. Stream size                              : 41.5 KiB (0%)
  323. Title                                    : Swedish [Full]
  324. Language                                 : Swedish
  325. Default                                  : No
  326. Forced                                   : No
  327.  
  328. Text #20
  329. ID                                       : 21
  330. Format                                   : UTF-8
  331. Codec ID                                 : S_TEXT/UTF8
  332. Codec ID/Info                            : UTF-8 Plain Text
  333. Duration                                 : 1 h 37 min
  334. Bit rate                                 : 53 b/s
  335. Count of elements                        : 1252
  336. Stream size                              : 38.4 KiB (0%)
  337. Title                                    : Danish [Full]
  338. Language                                 : Danish
  339. Default                                  : No
  340. Forced                                   : No
  341.  
  342. Text #21
  343. ID                                       : 22
  344. Format                                   : UTF-8
  345. Codec ID                                 : S_TEXT/UTF8
  346. Codec ID/Info                            : UTF-8 Plain Text
  347. Duration                                 : 1 h 37 min
  348. Bit rate                                 : 51 b/s
  349. Count of elements                        : 1297
  350. Stream size                              : 36.6 KiB (0%)
  351. Title                                    : Finnish [Full]
  352. Language                                 : Finnish
  353. Default                                  : No
  354. Forced                                   : No
  355.  
  356. Text #22
  357. ID                                       : 23
  358. Format                                   : UTF-8
  359. Codec ID                                 : S_TEXT/UTF8
  360. Codec ID/Info                            : UTF-8 Plain Text
  361. Duration                                 : 1 h 37 min
  362. Bit rate                                 : 51 b/s
  363. Count of elements                        : 1246
  364. Stream size                              : 37.0 KiB (0%)
  365. Title                                    : Dutch [Full]
  366. Language                                 : Dutch
  367. Default                                  : No
  368. Forced                                   : No
  369.  
  370. Text #23
  371. ID                                       : 24
  372. Format                                   : UTF-8
  373. Codec ID                                 : S_TEXT/UTF8
  374. Codec ID/Info                            : UTF-8 Plain Text
  375. Duration                                 : 1 h 37 min
  376. Bit rate                                 : 57 b/s
  377. Count of elements                        : 1333
  378. Stream size                              : 41.1 KiB (0%)
  379. Title                                    : Norwegian [Full]
  380. Language                                 : Norwegian
  381. Default                                  : No
  382. Forced                                   : No
  383.  
  384. Text #24
  385. ID                                       : 25
  386. Format                                   : UTF-8
  387. Codec ID                                 : S_TEXT/UTF8
  388. Codec ID/Info                            : UTF-8 Plain Text
  389. Duration                                 : 1 h 37 min
  390. Bit rate                                 : 90 b/s
  391. Count of elements                        : 1338
  392. Stream size                              : 64.8 KiB (0%)
  393. Title                                    : Russian [Full]
  394. Language                                 : Russian
  395. Default                                  : No
  396. Forced                                   : No
  397.  
  398. Text #25
  399. ID                                       : 26
  400. Format                                   : UTF-8
  401. Codec ID                                 : S_TEXT/UTF8
  402. Codec ID/Info                            : UTF-8 Plain Text
  403. Duration                                 : 1 h 37 min
  404. Bit rate                                 : 89 b/s
  405. Count of elements                        : 1310
  406. Stream size                              : 64.2 KiB (0%)
  407. Title                                    : Greek [Full]
  408. Language                                 : Greek
  409. Default                                  : No
  410. Forced                                   : No
  411.  
  412. Text #26
  413. ID                                       : 27
  414. Format                                   : UTF-8
  415. Codec ID                                 : S_TEXT/UTF8
  416. Codec ID/Info                            : UTF-8 Plain Text
  417. Duration                                 : 1 h 37 min
  418. Bit rate                                 : 90 b/s
  419. Count of elements                        : 1345
  420. Stream size                              : 64.8 KiB (0%)
  421. Title                                    : Hebrew [Full]
  422. Language                                 : Hebrew
  423. Default                                  : No
  424. Forced                                   : No
  425.  
  426. Text #27
  427. ID                                       : 28
  428. Format                                   : UTF-8
  429. Codec ID                                 : S_TEXT/UTF8
  430. Codec ID/Info                            : UTF-8 Plain Text
  431. Duration                                 : 1 h 37 min
  432. Bit rate                                 : 99 b/s
  433. Count of elements                        : 1340
  434. Stream size                              : 71.4 KiB (0%)
  435. Title                                    : Arabic [Full]
  436. Language                                 : Arabic
  437. Default                                  : No
  438. Forced                                   : No
  439.  
  440. Text #28
  441. ID                                       : 29
  442. Format                                   : UTF-8
  443. Codec ID                                 : S_TEXT/UTF8
  444. Codec ID/Info                            : UTF-8 Plain Text
  445. Duration                                 : 1 h 37 min
  446. Bit rate                                 : 54 b/s
  447. Count of elements                        : 1335
  448. Stream size                              : 38.9 KiB (0%)
  449. Title                                    : Romanian [Full]
  450. Language                                 : Romanian
  451. Default                                  : No
  452. Forced                                   : No
  453.  
  454. Text #29
  455. ID                                       : 30
  456. Format                                   : UTF-8
  457. Codec ID                                 : S_TEXT/UTF8
  458. Codec ID/Info                            : UTF-8 Plain Text
  459. Duration                                 : 1 h 37 min
  460. Bit rate                                 : 63 b/s
  461. Count of elements                        : 1398
  462. Stream size                              : 45.4 KiB (0%)
  463. Title                                    : Indonesian [Full]
  464. Language                                 : Indonesian
  465. Default                                  : No
  466. Forced                                   : No
  467.  
  468. Text #30
  469. ID                                       : 31
  470. Format                                   : UTF-8
  471. Codec ID                                 : S_TEXT/UTF8
  472. Codec ID/Info                            : UTF-8 Plain Text
  473. Duration                                 : 1 h 37 min
  474. Bit rate                                 : 134 b/s
  475. Count of elements                        : 1422
  476. Stream size                              : 96.4 KiB (0%)
  477. Title                                    : Thai [Full]
  478. Language                                 : Thai
  479. Default                                  : No
  480. Forced                                   : No
  481.  
  482. Text #31
  483. ID                                       : 32
  484. Format                                   : UTF-8
  485. Codec ID                                 : S_TEXT/UTF8
  486. Codec ID/Info                            : UTF-8 Plain Text
  487. Duration                                 : 1 h 37 min
  488. Bit rate                                 : 60 b/s
  489. Count of elements                        : 1339
  490. Stream size                              : 43.2 KiB (0%)
  491. Title                                    : Korean [Full]
  492. Language                                 : Korean
  493. Default                                  : No
  494. Forced                                   : No
  495.  
  496. Text #32
  497. ID                                       : 33
  498. Format                                   : UTF-8
  499. Codec ID                                 : S_TEXT/UTF8
  500. Codec ID/Info                            : UTF-8 Plain Text
  501. Duration                                 : 1 h 37 min
  502. Bit rate                                 : 54 b/s
  503. Count of elements                        : 1338
  504. Stream size                              : 39.2 KiB (0%)
  505. Title                                    : Chinese (Simplified) [Full]
  506. Language                                 : Chinese
  507. Default                                  : No
  508. Forced                                   : No
  509.  
  510. Text #33
  511. ID                                       : 34
  512. Format                                   : UTF-8
  513. Codec ID                                 : S_TEXT/UTF8
  514. Codec ID/Info                            : UTF-8 Plain Text
  515. Duration                                 : 1 h 37 min
  516. Bit rate                                 : 53 b/s
  517. Count of elements                        : 1339
  518. Stream size                              : 38.5 KiB (0%)
  519. Title                                    : Chinese (Traditional) [Full]
  520. Language                                 : Chinese
  521. Default                                  : No
  522. Forced                                   : No
  523.  
  524. Text #34
  525. ID                                       : 35
  526. Format                                   : UTF-8
  527. Codec ID                                 : S_TEXT/UTF8
  528. Codec ID/Info                            : UTF-8 Plain Text
  529. Duration                                 : 1 h 37 min
  530. Bit rate                                 : 2 b/s
  531. Count of elements                        : 47
  532. Stream size                              : 1.56 KiB (0%)
  533. Title                                    : Japanese [Forced]
  534. Language                                 : Japanese
  535. Default                                  : No
  536. Forced                                   : Yes
  537.  
  538. Text #35
  539. ID                                       : 36
  540. Format                                   : UTF-8
  541. Codec ID                                 : S_TEXT/UTF8
  542. Codec ID/Info                            : UTF-8 Plain Text
  543. Duration                                 : 1 h 37 min
  544. Bit rate                                 : 48 b/s
  545. Count of elements                        : 1372
  546. Stream size                              : 34.7 KiB (0%)
  547. Title                                    : Japanese [Full]
  548. Language                                 : Japanese
  549. Default                                  : No
  550. Forced                                   : No