The text below is selected, press Ctrl+C to copy to your clipboard. (⌘+C on Mac) No line numbers will be copied.
MediaInfo

15th January 2019 03:33:59 AM | Views: 690
  1. Format                                   : Matroska
  2. Format version                           : Version 4
  3. File size                                : 959 MiB
  4. Duration                                 : 1 h 58 min
  5. Overall bit rate                         : 1 132 kb/s
  6. Movie name                               : Once.Upon.A.Deadpool.2018.720p.WEB-DL.MkvCage.ws
  7. Encoded date                             : UTC 2019-01-15 03:32:37
  8. Writing application                      : mkvmerge v30.1.0 ('Forever And More') 64-bit
  9. Writing library                          : libebml v1.3.6 + libmatroska v1.4.9
  10.  
  11. Video
  12. ID                                       : 2
  13. Format                                   : AVC
  14. Format/Info                              : Advanced Video Codec
  15. Format profile                           : [email protected]
  16. Format settings                          : CABAC / 5 Ref Frames
  17. Format settings, CABAC                   : Yes
  18. Format settings, RefFrames               : 5 frames
  19. Codec ID                                 : V_MPEG4/ISO/AVC
  20. Duration                                 : 1 h 58 min
  21. Bit rate                                 : 1 067 kb/s
  22. Width                                    : 1 280 pixels
  23. Height                                   : 534 pixels
  24. Display aspect ratio                     : 2.40:1
  25. Original display aspect ratio            : 2.40:1
  26. Frame rate mode                          : Constant
  27. Frame rate                               : 23.976 (24000/1001) FPS
  28. Color space                              : YUV
  29. Chroma subsampling                       : 4:2:0
  30. Bit depth                                : 8 bits
  31. Scan type                                : Progressive
  32. Bits/(Pixel*Frame)                       : 0.065
  33. Stream size                              : 904 MiB (94%)
  34. Writing library                          : x264 core 155 r2901 7d0ff22
  35. Encoding settings                        : cabac=1 / ref=5 / deblock=1:0:0 / analyse=0x3:0x113 / me=hex / subme=8 / psy=1 / psy_rd=1.00:0.00 / mixed_ref=1 / me_range=16 / chroma_me=1 / trellis=2 / 8x8dct=1 / cqm=0 / deadzone=21,11 / fast_pskip=1 / chroma_qp_offset=-2 / threads=17 / lookahead_threads=2 / sliced_threads=0 / nr=0 / decimate=1 / interlaced=0 / bluray_compat=0 / constrained_intra=0 / bframes=3 / b_pyramid=2 / b_adapt=1 / b_bias=0 / direct=3 / weightb=1 / open_gop=0 / weightp=2 / keyint=240 / keyint_min=24 / scenecut=40 / intra_refresh=0 / rc_lookahead=50 / rc=2pass / mbtree=1 / bitrate=1067 / ratetol=1.0 / qcomp=0.60 / qpmin=0 / qpmax=69 / qpstep=4 / cplxblur=20.0 / qblur=0.5 / vbv_maxrate=62500 / vbv_bufsize=78125 / nal_hrd=none / filler=0 / ip_ratio=1.40 / aq=1:1.00
  36. Default                                  : Yes
  37. Forced                                   : No
  38. Color range                              : Limited
  39. Color primaries                          : BT.709
  40. Transfer characteristics                 : BT.709
  41. Matrix coefficients                      : BT.709
  42.  
  43. Audio
  44. ID                                       : 1
  45. Format                                   : AAC LC SBR
  46. Format/Info                              : Advanced Audio Codec Low Complexity with Spectral Band Replication
  47. Commercial name                          : HE-AAC
  48. Format settings                          : Explicit
  49. Codec ID                                 : A_AAC-2
  50. Duration                                 : 1 h 57 min
  51. Bit rate                                 : 64.0 kb/s
  52. Channel(s)                               : 2 channels
  53. Channel layout                           : L R
  54. Sampling rate                            : 48.0 kHz
  55. Frame rate                               : 23.438 FPS (2048 SPF)
  56. Compression mode                         : Lossy
  57. Delay relative to video                  : 31 ms
  58. Stream size                              : 53.9 MiB (6%)
  59. Language                                 : English
  60. Default                                  : Yes
  61. Forced                                   : No
  62.  
  63. Menu
  64. 00:00:00.000                             : :Chapter 1
  65. 00:04:06.163                             : :Chapter 2
  66. 00:06:12.414                             : :Chapter 3
  67. 00:11:30.481                             : :Chapter 4
  68. 00:15:12.870                             : :Chapter 5
  69. 00:18:34.322                             : :Chapter 6
  70. 00:20:50.791                             : :Chapter 7
  71. 00:24:32.513                             : :Chapter 8
  72. 00:25:53.886                             : :Chapter 9
  73. 00:28:18.030                             : :Chapter 10
  74. 00:32:39.833                             : :Chapter 11
  75. 00:36:22.597                             : :Chapter 12
  76. 00:39:47.176                             : :Chapter 13
  77. 00:42:26.044                             : :Chapter 14
  78. 00:45:28.476                             : :Chapter 15
  79. 00:49:03.941                             : :Chapter 16
  80. 00:52:18.761                             : :Chapter 17
  81. 00:54:49.620                             : :Chapter 18
  82. 00:56:32.514                             : :Chapter 19
  83. 00:58:20.080                             : :Chapter 20
  84. 01:03:26.011                             : :Chapter 21
  85. 01:07:01.768                             : :Chapter 22
  86. 01:12:22.713                             : :Chapter 23
  87. 01:17:14.713                             : :Chapter 24
  88. 01:20:18.272                             : :Chapter 25
  89. 01:23:44.686                             : :Chapter 26
  90. 01:25:42.387                             : :Chapter 27
  91. 01:28:29.846                             : :Chapter 28
  92. 01:29:57.350                             : :Chapter 29
  93. 01:31:30.694                             : :Chapter 30
  94. 01:33:03.161                             : :Chapter 31
  95. 01:36:21.401                             : :Chapter 32
  96. 01:38:59.851                             : :Chapter 33
  97. 01:42:44.325                             : :Chapter 34
  98. 01:46:27.756                             : :Chapter 35
  99. 01:56:50.003                             : :Chapter 36