The text below is selected, press Ctrl+C to copy to your clipboard. (⌘+C on Mac) No line numbers will be copied.
MediaInfo

22nd January 2019 07:22:28 AM | Views: 727
  1. Format                                   : Matroska
  2. Format version                           : Version 4
  3. File size                                : 1.02 GiB
  4. Duration                                 : 2 h 10 min
  5. Overall bit rate                         : 1 121 kb/s
  6. Movie name                               : Widows.2018.720p.WEB-DL.MkvCage.ws
  7. Encoded date                             : UTC 2019-01-22 07:20:57
  8. Writing application                      : mkvmerge v30.1.0 ('Forever And More') 64-bit
  9. Writing library                          : libebml v1.3.6 + libmatroska v1.4.9
  10.  
  11. Video
  12. ID                                       : 3
  13. Format                                   : AVC
  14. Format/Info                              : Advanced Video Codec
  15. Format profile                           : [email protected]
  16. Format settings                          : CABAC / 5 Ref Frames
  17. Format settings, CABAC                   : Yes
  18. Format settings, RefFrames               : 5 frames
  19. Codec ID                                 : V_MPEG4/ISO/AVC
  20. Duration                                 : 2 h 10 min
  21. Bit rate                                 : 1 056 kb/s
  22. Width                                    : 1 280 pixels
  23. Height                                   : 534 pixels
  24. Display aspect ratio                     : 2.40:1
  25. Frame rate mode                          : Constant
  26. Frame rate                               : 23.976 (24000/1001) FPS
  27. Color space                              : YUV
  28. Chroma subsampling                       : 4:2:0
  29. Bit depth                                : 8 bits
  30. Scan type                                : Progressive
  31. Bits/(Pixel*Frame)                       : 0.064
  32. Stream size                              : 983 MiB (94%)
  33. Writing library                          : x264 core 155 r2901 7d0ff22
  34. Encoding settings                        : cabac=1 / ref=5 / deblock=1:-1:-1 / analyse=0x3:0x113 / me=hex / subme=8 / psy=1 / psy_rd=1.00:0.15 / mixed_ref=1 / me_range=16 / chroma_me=1 / trellis=2 / 8x8dct=1 / cqm=0 / deadzone=21,11 / fast_pskip=1 / chroma_qp_offset=-3 / threads=17 / lookahead_threads=2 / sliced_threads=0 / nr=0 / decimate=1 / interlaced=0 / bluray_compat=0 / constrained_intra=0 / bframes=3 / b_pyramid=2 / b_adapt=1 / b_bias=0 / direct=3 / weightb=1 / open_gop=0 / weightp=2 / keyint=240 / keyint_min=24 / scenecut=40 / intra_refresh=0 / rc_lookahead=50 / rc=2pass / mbtree=1 / bitrate=1056 / ratetol=1.0 / qcomp=0.60 / qpmin=0 / qpmax=69 / qpstep=4 / cplxblur=20.0 / qblur=0.5 / vbv_maxrate=62500 / vbv_bufsize=78125 / nal_hrd=none / filler=0 / ip_ratio=1.40 / aq=1:1.00
  35. Default                                  : Yes
  36. Forced                                   : No
  37. Color range                              : Limited
  38. Color primaries                          : BT.709
  39. Transfer characteristics                 : BT.709
  40. Matrix coefficients                      : BT.709
  41.  
  42. Audio
  43. ID                                       : 1
  44. Format                                   : AAC LC SBR
  45. Format/Info                              : Advanced Audio Codec Low Complexity with Spectral Band Replication
  46. Commercial name                          : HE-AAC
  47. Format settings                          : Explicit
  48. Codec ID                                 : A_AAC-2
  49. Duration                                 : 2 h 9 min
  50. Bit rate                                 : 64.0 kb/s
  51. Channel(s)                               : 2 channels
  52. Channel layout                           : L R
  53. Sampling rate                            : 48.0 kHz
  54. Frame rate                               : 23.438 FPS (2048 SPF)
  55. Compression mode                         : Lossy
  56. Delay relative to video                  : 31 ms
  57. Stream size                              : 59.3 MiB (6%)
  58. Language                                 : English
  59. Default                                  : Yes
  60. Forced                                   : No
  61.  
  62. Text
  63. ID                                       : 2
  64. Format                                   : UTF-8
  65. Codec ID                                 : S_TEXT/UTF8
  66. Codec ID/Info                            : UTF-8 Plain Text
  67. Duration                                 : 2 h 3 min
  68. Bit rate                                 : 62 b/s
  69. Count of elements                        : 1832
  70. Stream size                              : 56.0 KiB (0%)
  71. Language                                 : English
  72. Default                                  : Yes
  73. Forced                                   : No
  74.  
  75. Menu
  76. 00:00:00.000                             : :Chapter 1
  77. 00:03:40.345                             : :Chapter 2
  78. 00:08:59.372                             : :Chapter 3
  79. 00:14:13.561                             : :Chapter 4
  80. 00:21:41.967                             : :Chapter 5
  81. 00:28:13.358                             : :Chapter 6
  82. 00:36:06.039                             : :Chapter 7
  83. 00:41:00.708                             : :Chapter 8
  84. 00:45:57.630                             : :Chapter 9
  85. 00:53:17.027                             : :Chapter 10
  86. 00:58:10.278                             : :Chapter 11
  87. 01:03:50.660                             : :Chapter 12
  88. 01:09:55.733                             : :Chapter 13
  89. 01:12:52.743                             : :Chapter 14
  90. 01:17:20.803                             : :Chapter 15
  91. 01:26:18.632                             : :Chapter 16
  92. 01:33:28.269                             : :Chapter 17
  93. 01:35:52.330                             : :Chapter 18
  94. 01:39:09.444                             : :Chapter 19
  95. 01:42:19.050                             : :Chapter 20
  96. 01:46:11.365                             : :Chapter 21
  97. 01:53:13.078                             : :Chapter 22
  98. 01:58:17.632                             : :Chapter 23
  99. 02:03:47.670                             : :Chapter 24