The text below is selected, press Ctrl+C to copy to your clipboard. (⌘+C on Mac) No line numbers will be copied.
MediaInfo

31st January 2019 02:16:45 AM | Views: 659
  1. Format                                   : Matroska
  2. Format version                           : Version 4
  3. File size                                : 1.00 GiB
  4. Duration                                 : 2 h 8 min
  5. Overall bit rate                         : 1 116 kb/s
  6. Movie name                               : Mortal.Engines.2018.720p.WEB-DL.MkvCage.ws
  7. Encoded date                             : UTC 2019-01-31 02:14:06
  8. Writing application                      : mkvmerge v30.1.0 ('Forever And More') 64-bit
  9. Writing library                          : libebml v1.3.6 + libmatroska v1.4.9
  10.  
  11. Video
  12. ID                                       : 1
  13. Format                                   : AVC
  14. Format/Info                              : Advanced Video Codec
  15. Format profile                           : [email protected]
  16. Format settings                          : CABAC / 8 Ref Frames
  17. Format settings, CABAC                   : Yes
  18. Format settings, RefFrames               : 8 frames
  19. Codec ID                                 : V_MPEG4/ISO/AVC
  20. Duration                                 : 2 h 8 min
  21. Bit rate                                 : 1 050 kb/s
  22. Width                                    : 1 280 pixels
  23. Height                                   : 532 pixels
  24. Display aspect ratio                     : 2.40:1
  25. Frame rate mode                          : Constant
  26. Frame rate                               : 23.976 (24000/1001) FPS
  27. Color space                              : YUV
  28. Chroma subsampling                       : 4:2:0
  29. Bit depth                                : 8 bits
  30. Scan type                                : Progressive
  31. Bits/(Pixel*Frame)                       : 0.064
  32. Stream size                              : 964 MiB (94%)
  33. Writing library                          : x264 core 157 r2935 545de2f
  34. Encoding settings                        : cabac=1 / ref=8 / deblock=1:-1:-1 / analyse=0x3:0x133 / me=umh / subme=9 / psy=1 / psy_rd=1.00:0.10 / mixed_ref=1 / me_range=16 / chroma_me=1 / trellis=2 / 8x8dct=1 / cqm=0 / deadzone=21,11 / fast_pskip=1 / chroma_qp_offset=-3 / threads=17 / lookahead_threads=1 / sliced_threads=0 / nr=0 / decimate=1 / interlaced=0 / bluray_compat=0 / constrained_intra=0 / bframes=3 / b_pyramid=2 / b_adapt=2 / b_bias=0 / direct=3 / weightb=1 / open_gop=0 / weightp=2 / keyint=250 / keyint_min=23 / scenecut=40 / intra_refresh=0 / rc_lookahead=60 / rc=2pass / mbtree=1 / bitrate=1050 / ratetol=1.0 / qcomp=0.60 / qpmin=0 / qpmax=69 / qpstep=4 / cplxblur=20.0 / qblur=0.5 / ip_ratio=1.40 / aq=1:1.00
  35. Default                                  : Yes
  36. Forced                                   : No
  37.  
  38. Audio
  39. ID                                       : 2
  40. Format                                   : AAC LC SBR
  41. Format/Info                              : Advanced Audio Codec Low Complexity with Spectral Band Replication
  42. Commercial name                          : HE-AAC
  43. Format settings                          : Explicit
  44. Codec ID                                 : A_AAC-2
  45. Duration                                 : 2 h 8 min
  46. Bit rate                                 : 64.0 kb/s
  47. Channel(s)                               : 2 channels
  48. Channel layout                           : L R
  49. Sampling rate                            : 48.0 kHz
  50. Frame rate                               : 23.438 FPS (2048 SPF)
  51. Compression mode                         : Lossy
  52. Delay relative to video                  : 27 ms
  53. Stream size                              : 58.8 MiB (6%)
  54. Title                                    : Mortal.Engines.2018.1080p.WEB-DL.AAC2.0.H264-SHITBOX
  55. Language                                 : English
  56. Default                                  : Yes
  57. Forced                                   : No
  58.  
  59. Text
  60. ID                                       : 3
  61. Format                                   : UTF-8
  62. Codec ID                                 : S_TEXT/UTF8
  63. Codec ID/Info                            : UTF-8 Plain Text
  64. Duration                                 : 1 h 58 min
  65. Bit rate                                 : 39 b/s
  66. Count of elements                        : 1323
  67. Stream size                              : 34.5 KiB (0%)
  68. Language                                 : English
  69. Default                                  : Yes
  70. Forced                                   : No
  71.  
  72. Menu
  73. 00:00:00.000                             : :1
  74. 00:09:25.398                             : :2
  75. 00:16:14.306                             : :3
  76. 00:24:21.626                             : :4
  77. 00:31:25.591                             : :5
  78. 00:35:54.067                             : :6
  79. 00:41:28.818                             : :7
  80. 00:44:54.815                             : :8
  81. 00:50:17.804                             : :9
  82. 00:54:22.173                             : :10
  83. 01:00:52.396                             : :11
  84. 01:07:13.068                             : :12
  85. 01:11:13.850                             : :13
  86. 01:17:38.734                             : :14
  87. 01:25:26.618                             : :15
  88. 01:33:31.394                             : :16
  89. 01:39:29.543                             : :17
  90. 01:47:59.261                             : :18
  91. 01:52:12.555                             : :19
  92. 01:58:34.520                             : :20