The text below is selected, press Ctrl+C to copy to your clipboard. (⌘+C on Mac) No line numbers will be copied.
Encanto (2021) 720p

21st January 2022 05:04:21 AM | Views: 89
  1. Format                                   : Matroska
  2. Format version                           : Version 4
  3. File size                                : 1.09 GiB
  4. Duration                                 : 1 h 42 min
  5. Overall bit rate                         : 1 531 kb/s
  6. Movie name                               : Encanto (2021) 720p BluRay x264 Dual Audio [Hindi DDP5.1 + English BD5.1] ESub 1.09GB [www.MoviezAddiction.art]
  7. Encoded date                             : UTC 2022-01-20 06:12:00
  8. Writing application                      : mkvmerge v47.0.0 ('Black Flag') 64-bit
  9. Writing library                          : libebml v1.3.10 + libmatroska v1.5.2
  10.  
  11. Video
  12. ID                                       : 1
  13. Format                                   : AVC
  14. Format/Info                              : Advanced Video Codec
  15. Format profile                           : [email protected]
  16. Format settings                          : CABAC / 4 Ref Frames
  17. Format settings, CABAC                   : Yes
  18. Format settings, Reference frames        : 4 frames
  19. Codec ID                                 : V_MPEG4/ISO/AVC
  20. Duration                                 : 1 h 42 min
  21. Bit rate                                 : 1 099 kb/s
  22. Width                                    : 1 280 pixels
  23. Height                                   : 690 pixels
  24. Display aspect ratio                     : 1.85:1
  25. Original display aspect ratio            : 1.85:1
  26. Frame rate mode                          : Variable
  27. Frame rate                               : 23.976 (24000/1001) FPS
  28. Color space                              : YUV
  29. Chroma subsampling                       : 4:2:0
  30. Bit depth                                : 8 bits
  31. Scan type                                : Progressive
  32. Bits/(Pixel*Frame)                       : 0.052
  33. Stream size                              : 802 MiB (72%)
  34. Title                                    : [www.MoviezAddiction.art]
  35. Default                                  : Yes
  36. Forced                                   : No
  37.  
  38. Audio #1
  39. ID                                       : 2
  40. Format                                   : E-AC-3
  41. Format/Info                              : Enhanced AC-3
  42. Commercial name                          : Dolby Digital Plus
  43. Codec ID                                 : A_EAC3
  44. Duration                                 : 1 h 42 min
  45. Bit rate mode                            : Constant
  46. Bit rate                                 : 192 kb/s
  47. Channel(s)                               : 6 channels
  48. Channel layout                           : L R C LFE Ls Rs
  49. Sampling rate                            : 48.0 kHz
  50. Frame rate                               : 31.250 FPS (1536 SPF)
  51. Compression mode                         : Lossy
  52. Delay relative to video                  : 16 ms
  53. Stream size                              : 140 MiB (13%)
  54. Title                                    : [www.MoviezAddiction.art] - Hindi
  55. Language                                 : Hindi
  56. Service kind                             : Complete Main
  57. Default                                  : Yes
  58. Forced                                   : No
  59.  
  60. Audio #2
  61. ID                                       : 3
  62. Format                                   : AAC LC SBR
  63. Format/Info                              : Advanced Audio Codec Low Complexity with Spectral Band Replication
  64. Commercial name                          : HE-AAC
  65. Format settings                          : Explicit
  66. Codec ID                                 : A_AAC-2
  67. Duration                                 : 1 h 42 min
  68. Bit rate                                 : 192 kb/s
  69. Channel(s)                               : 6 channels
  70. Channel layout                           : C L R Ls Rs LFE
  71. Sampling rate                            : 48.0 kHz
  72. Frame rate                               : 23.438 FPS (2048 SPF)
  73. Compression mode                         : Lossy
  74. Stream size                              : 139 MiB (12%)
  75. Title                                    : [www.MoviezAddiction.art] - English
  76. Language                                 : English
  77. Default                                  : No
  78. Forced                                   : No
  79.  
  80. Text
  81. ID                                       : 4
  82. Format                                   : PGS
  83. Codec ID                                 : S_HDMV/PGS
  84. Codec ID/Info                            : Picture based subtitle format used on BDs/HD-DVDs
  85. Duration                                 : 1 h 36 min
  86. Bit rate                                 : 49.7 kb/s
  87. Count of elements                        : 3674
  88. Stream size                              : 34.3 MiB (3%)
  89. Title                                    : [www.MoviezAddiction.art] - English [PGS]
  90. Language                                 : English
  91. Default                                  : Yes
  92. Forced                                   : No
  93.  
  94. Menu
  95. 00:00:00.000                             : Chapter 01
  96. 00:03:57.654                             : Chapter 02
  97. 00:09:49.297                             : Chapter 03
  98. 00:15:07.573                             : Chapter 04
  99. 00:16:54.889                             : Chapter 05
  100. 00:21:48.807                             : Chapter 06
  101. 00:24:54.910                             : Chapter 07
  102. 00:28:58.612                             : Chapter 08
  103. 00:31:10.619                             : Chapter 09
  104. 00:38:35.104                             : Chapter 10
  105. 00:44:57.820                             : Chapter 11
  106. 00:53:39.967                             : Chapter 12
  107. 01:01:22.345                             : Chapter 13
  108. 01:06:28.067                             : Chapter 14
  109. 01:11:41.255                             : Chapter 15
  110. 01:16:38.135                             : Chapter 16
  111. 01:24:25.394                             : Chapter 17
  112. 01:31:02.207                             : Chapter 18