The text below is selected, press Ctrl+C to copy to your clipboard. (⌘+C on Mac) No line numbers will be copied.
MediaInfo

26th June 2019 01:33:19 AM | Views: 290
  1. Format                                   : Matroska
  2. Format version                           : Version 4
  3. File size                                : 1.22 GiB
  4. Duration                                 : 2 h 11 min
  5. Overall bit rate                         : 1 330 kb/s
  6. Movie name                               : Shazam.2019.720p.BRRip.x264-MkvCage.Com
  7. Encoded date                             : UTC 2019-06-26 01:31:18
  8. Writing application                      : mkvmerge v30.0.0 ('Interstellar') 64-bit
  9. Writing library                          : libebml v1.3.6 + libmatroska v1.4.9
  10.  
  11. Video
  12. ID                                       : 2
  13. Format                                   : AVC
  14. Format/Info                              : Advanced Video Codec
  15. Format profile                           : [email protected]
  16. Format settings                          : CABAC / 8 Ref Frames
  17. Format settings, CABAC                   : Yes
  18. Format settings, Reference frames        : 8 frames
  19. Codec ID                                 : V_MPEG4/ISO/AVC
  20. Duration                                 : 2 h 11 min
  21. Bit rate                                 : 1 200 kb/s
  22. Width                                    : 1 280 pixels
  23. Height                                   : 536 pixels
  24. Display aspect ratio                     : 2.40:1
  25. Frame rate mode                          : Constant
  26. Frame rate                               : 23.976 (24000/1001) FPS
  27. Color space                              : YUV
  28. Chroma subsampling                       : 4:2:0
  29. Bit depth                                : 8 bits
  30. Scan type                                : Progressive
  31. Bits/(Pixel*Frame)                       : 0.073
  32. Stream size                              : 1.10 GiB (90%)
  33. Writing library                          : x264 core 157 r2935 545de2f
  34. Encoding settings                        : cabac=1 / ref=8 / deblock=1:-1:-1 / analyse=0x3:0x133 / me=umh / subme=9 / psy=1 / psy_rd=1.00:0.10 / mixed_ref=1 / me_range=24 / chroma_me=1 / trellis=2 / 8x8dct=1 / cqm=0 / deadzone=21,11 / fast_pskip=1 / chroma_qp_offset=-3 / threads=17 / lookahead_threads=1 / sliced_threads=0 / nr=0 / decimate=1 / interlaced=0 / bluray_compat=0 / constrained_intra=0 / bframes=3 / b_pyramid=2 / b_adapt=2 / b_bias=0 / direct=3 / weightb=1 / open_gop=0 / weightp=2 / keyint=250 / keyint_min=23 / scenecut=40 / intra_refresh=0 / rc_lookahead=60 / rc=2pass / mbtree=1 / bitrate=1200 / ratetol=1.0 / qcomp=0.60 / qpmin=0 / qpmax=69 / qpstep=4 / cplxblur=20.0 / qblur=0.5 / ip_ratio=1.40 / aq=1:1.00
  35. Default                                  : Yes
  36. Forced                                   : No
  37. Color range                              : Limited
  38. Color primaries                          : BT.709
  39. Transfer characteristics                 : BT.709
  40.  
  41. Audio
  42. ID                                       : 3
  43. Format                                   : AAC LC SBR
  44. Format/Info                              : Advanced Audio Codec Low Complexity with Spectral Band Replication
  45. Commercial name                          : HE-AAC
  46. Format settings                          : Explicit
  47. Codec ID                                 : A_AAC-2
  48. Duration                                 : 2 h 11 min
  49. Bit rate                                 : 128 kb/s
  50. Channel(s)                               : 2 channels
  51. Channel layout                           : L R
  52. Sampling rate                            : 48.0 kHz
  53. Frame rate                               : 23.438 FPS (2048 SPF)
  54. Compression mode                         : Lossy
  55. Delay relative to video                  : 38 ms
  56. Stream size                              : 121 MiB (10%)
  57. Language                                 : English
  58. Default                                  : Yes
  59. Forced                                   : No
  60.  
  61. Text
  62. ID                                       : 1
  63. Format                                   : UTF-8
  64. Codec ID                                 : S_TEXT/UTF8
  65. Codec ID/Info                            : UTF-8 Plain Text
  66. Duration                                 : 2 h 10 min
  67. Bit rate                                 : 52 b/s
  68. Count of elements                        : 1728
  69. Stream size                              : 49.9 KiB (0%)
  70. Language                                 : English
  71. Default                                  : Yes
  72. Forced                                   : No
  73.  
  74. Menu
  75. 00:00:00.000                             : :Chapter 1
  76. 00:08:18.915                             : :Chapter 2
  77. 00:15:11.368                             : :Chapter 3
  78. 00:25:22.521                             : :Chapter 4
  79. 00:31:57.665                             : :Chapter 5
  80. 00:39:00.338                             : :Chapter 6
  81. 00:50:07.754                             : :Chapter 7
  82. 01:01:28.893                             : :Chapter 8
  83. 01:08:51.585                             : :Chapter 9
  84. 01:16:40.596                             : :Chapter 10
  85. 01:24:29.481                             : :Chapter 11
  86. 01:34:00.760                             : :Chapter 12
  87. 01:43:01.216                             : :Chapter 13
  88. 01:52:53.933                             : :Chapter 14
  89. 02:00:44.654                             : :Chapter 15