The text below is selected, press Ctrl+C to copy to your clipboard. (⌘+C on Mac) No line numbers will be copied.
Resident Evil - Welcome to...

20th January 2022 08:39:13 AM | Views: 75
  1. Format                                   : Matroska
  2. Format version                           : Version 4
  3. File size                                : 1.12 GiB
  4. Duration                                 : 1 h 47 min
  5. Overall bit rate                         : 1 482 kb/s
  6. Movie name                               : Resident Evil - Welcome to Raccoon City (2021) 720p WEB-DL x264 Dual Audio [Hindi DD5.1 + English DD5.1] MSubs 1.11GB [www.MoviezAddiction.art]
  7. Encoded date                             : UTC 2022-01-20 04:54:44
  8. Writing application                      : mkvmerge v47.0.0 ('Black Flag') 64-bit
  9. Writing library                          : libebml v1.3.10 + libmatroska v1.5.2
  10.  
  11. Video
  12. ID                                       : 1
  13. Format                                   : AVC
  14. Format/Info                              : Advanced Video Codec
  15. Format profile                           : [email protected]
  16. Format settings                          : CABAC / 4 Ref Frames
  17. Format settings, CABAC                   : Yes
  18. Format settings, Reference frames        : 4 frames
  19. Codec ID                                 : V_MPEG4/ISO/AVC
  20. Duration                                 : 1 h 47 min
  21. Bit rate                                 : 1 099 kb/s
  22. Width                                    : 1 280 pixels
  23. Height                                   : 544 pixels
  24. Display aspect ratio                     : 2.35:1
  25. Original display aspect ratio            : 2.35:1
  26. Frame rate mode                          : Variable
  27. Frame rate                               : 23.976 (24000/1001) FPS
  28. Color space                              : YUV
  29. Chroma subsampling                       : 4:2:0
  30. Bit depth                                : 8 bits
  31. Scan type                                : Progressive
  32. Bits/(Pixel*Frame)                       : 0.066
  33. Stream size                              : 846 MiB (74%)
  34. Title                                    : [www.MoviezAddiction.art]
  35. Default                                  : Yes
  36. Forced                                   : No
  37. Color range                              : Limited
  38. Color primaries                          : BT.709
  39. Transfer characteristics                 : BT.709
  40. Matrix coefficients                      : BT.709
  41.  
  42. Audio #1
  43. ID                                       : 2
  44. Format                                   : AAC LC SBR
  45. Format/Info                              : Advanced Audio Codec Low Complexity with Spectral Band Replication
  46. Commercial name                          : HE-AAC
  47. Format settings                          : Explicit
  48. Codec ID                                 : A_AAC-2
  49. Duration                                 : 1 h 47 min
  50. Bit rate                                 : 192 kb/s
  51. Channel(s)                               : 6 channels
  52. Channel layout                           : C L R Ls Rs LFE
  53. Sampling rate                            : 48.0 kHz
  54. Frame rate                               : 23.438 FPS (2048 SPF)
  55. Compression mode                         : Lossy
  56. Delay relative to video                  : 14 s 651 ms
  57. Stream size                              : 147 MiB (13%)
  58. Title                                    : [www.MoviezAddiction.art] - Hindi
  59. Language                                 : Hindi
  60. Default                                  : No
  61. Forced                                   : No
  62.  
  63. Audio #2
  64. ID                                       : 3
  65. Format                                   : AAC LC SBR
  66. Format/Info                              : Advanced Audio Codec Low Complexity with Spectral Band Replication
  67. Commercial name                          : HE-AAC
  68. Format settings                          : Explicit
  69. Codec ID                                 : A_AAC-2
  70. Duration                                 : 1 h 47 min
  71. Bit rate                                 : 192 kb/s
  72. Channel(s)                               : 6 channels
  73. Channel layout                           : C L R Ls Rs LFE
  74. Sampling rate                            : 48.0 kHz
  75. Frame rate                               : 23.438 FPS (2048 SPF)
  76. Compression mode                         : Lossy
  77. Stream size                              : 147 MiB (13%)
  78. Title                                    : [www.MoviezAddiction.art] - English
  79. Language                                 : English
  80. Default                                  : Yes
  81. Forced                                   : No
  82.  
  83. Text #1
  84. ID                                       : 4
  85. Format                                   : UTF-8
  86. Codec ID                                 : S_TEXT/UTF8
  87. Codec ID/Info                            : UTF-8 Plain Text
  88. Duration                                 : 1 h 46 min
  89. Bit rate                                 : 40 b/s
  90. Count of elements                        : 1437
  91. Stream size                              : 31.7 KiB (0%)
  92. Title                                    : [www.MoviezAddiction.art] - English [SRT]
  93. Language                                 : English
  94. Default                                  : Yes
  95. Forced                                   : No
  96.  
  97. Text #2
  98. ID                                       : 5
  99. Format                                   : UTF-8
  100. Codec ID                                 : S_TEXT/UTF8
  101. Codec ID/Info                            : UTF-8 Plain Text
  102. Duration                                 : 1 h 46 min
  103. Bit rate                                 : 44 b/s
  104. Count of elements                        : 1473
  105. Stream size                              : 34.5 KiB (0%)
  106. Title                                    : [www.MoviezAddiction.art] - English [SDH] [SRT]
  107. Language                                 : English
  108. Default                                  : No
  109. Forced                                   : No
  110.  
  111. Menu
  112. 00:00:00.000                             : Studio Logo
  113. 00:00:56.000                             : Opening Credits
  114. 00:01:08.000                             : Scene 3
  115. 00:05:12.000                             : Scene 4
  116. 00:06:29.000                             : Scene 5
  117. 00:06:32.000                             : Scene 6
  118. 00:15:09.000                             : Scene 7
  119. 00:20:09.000                             : Scene 8
  120. 00:26:16.000                             : Scene 9
  121. 00:38:00.000                             : Scene 10
  122. 00:41:24.000                             : Scene 11
  123. 00:51:51.000                             : Scene 12
  124. 00:59:22.000                             : Scene 13
  125. 01:07:39.000                             : Scene 14
  126. 01:13:20.000                             : Scene 15
  127. 01:16:22.000                             : Scene 16
  128. 01:16:48.000                             : Scene 17
  129. 01:19:17.000                             : Scene 18
  130. 01:19:34.000                             : Scene 19
  131. 01:20:46.000                             : Scene 20
  132. 01:24:11.000                             : Scene 21
  133. 01:28:44.000                             : Scene 22
  134. 01:34:00.000                             : Scene 23
  135. 01:35:17.000                             : Scene 24
  136. 01:39:29.000                             : Scene 25
  137. 01:41:06.000                             : End Credits