The text below is selected, press Ctrl+C to copy to your clipboard. (⌘+C on Mac) No line numbers will be copied.
Damsel (2018) 720p

28th June 2020 08:00:05 AM | Views: 15
  1. General
  2. Unique ID                                : 20518561702582634419309224548978319661 (0xF6FBB32895965E2A5D7873D8C9AE12D)
  3. Complete name                            : S:\Damsel (2018) Working\Damsel (2018) 720p BluRay x264 Dual Audio [Hindi DD5.1 + English DD5.1] MSub - [Www.MoviezAddiction.Site].mkv
  4. Format                                   : Matroska
  5. Format version                           : Version 4
  6. File size                                : 1.21 GiB
  7. Duration                                 : 1 h 53 min
  8. Overall bit rate                         : 1 523 kb/s
  9. Movie name                               : Damsel (2018) 720p BluRay x264 Dual Audio [Hindi DD5.1 + English DD5.1] MSub - [Www.MoviezAddiction.Site]
  10. Encoded date                             : UTC 2020-06-28 05:27:26
  11. Writing application                      : mkvmerge v47.0.0 ('Black Flag') 64-bit
  12. Writing library                          : libebml v1.3.10 + libmatroska v1.5.2
  13.  
  14. Video
  15. ID                                       : 1
  16. Format                                   : AVC
  17. Format/Info                              : Advanced Video Codec
  18. Format profile                           : [email protected]
  19. Format settings                          : CABAC / 4 Ref Frames
  20. Format settings, CABAC                   : Yes
  21. Format settings, Reference frames        : 4 frames
  22. Codec ID                                 : V_MPEG4/ISO/AVC
  23. Duration                                 : 1 h 53 min
  24. Bit rate                                 : 1 099 kb/s
  25. Width                                    : 1 280 pixels
  26. Height                                   : 536 pixels
  27. Display aspect ratio                     : 2.40:1
  28. Frame rate mode                          : Constant
  29. Frame rate                               : 23.976 (24000/1001) FPS
  30. Color space                              : YUV
  31. Chroma subsampling                       : 4:2:0
  32. Bit depth                                : 8 bits
  33. Scan type                                : Progressive
  34. Bits/(Pixel*Frame)                       : 0.067
  35. Stream size                              : 893 MiB (72%)
  36. Title                                    : [Www.MoviezAddiction.Site]
  37. Writing library                          : x264 core 155 r2893 b00bcaf
  38. Encoding settings                        : cabac=1 / ref=3 / deblock=1:0:0 / analyse=0x1:0x111 / me=hex / subme=7 / psy=1 / psy_rd=1.00:0.00 / mixed_ref=1 / me_range=16 / chroma_me=1 / trellis=1 / 8x8dct=0 / cqm=0 / deadzone=21,11 / fast_pskip=1 / chroma_qp_offset=-2 / threads=12 / lookahead_threads=2 / sliced_threads=0 / nr=0 / decimate=1 / interlaced=0 / bluray_compat=0 / constrained_intra=0 / bframes=3 / b_pyramid=2 / b_adapt=1 / b_bias=0 / direct=1 / weightb=1 / open_gop=0 / weightp=2 / keyint=240 / keyint_min=24 / scenecut=40 / intra_refresh=0 / rc_lookahead=40 / rc=2pass / mbtree=1 / bitrate=1099 / ratetol=1.0 / qcomp=0.60 / qpmin=0 / qpmax=69 / qpstep=4 / cplxblur=20.0 / qblur=0.5 / vbv_maxrate=14000 / vbv_bufsize=14000 / nal_hrd=none / filler=0 / ip_ratio=1.40 / aq=1:1.00
  39. Default                                  : Yes
  40. Forced                                   : No
  41. Color range                              : Limited
  42. Color primaries                          : BT.709
  43. Transfer characteristics                 : BT.709
  44. Matrix coefficients                      : BT.709
  45.  
  46. Audio #1
  47. ID                                       : 2
  48. Format                                   : AAC LC
  49. Format/Info                              : Advanced Audio Codec Low Complexity
  50. Codec ID                                 : A_AAC-2
  51. Duration                                 : 1 h 53 min
  52. Bit rate                                 : 224 kb/s
  53. Channel(s)                               : 6 channels
  54. Channel layout                           : C L R Ls Rs LFE
  55. Sampling rate                            : 48.0 kHz
  56. Frame rate                               : 46.875 FPS (1024 SPF)
  57. Compression mode                         : Lossy
  58. Stream size                              : 182 MiB (15%)
  59. Title                                    : [Www.MoviezAddiction.Site]
  60. Language                                 : English
  61. Default                                  : Yes
  62. Forced                                   : No
  63.  
  64. Audio #2
  65. ID                                       : 3
  66. Format                                   : AAC LC
  67. Format/Info                              : Advanced Audio Codec Low Complexity
  68. Codec ID                                 : A_AAC-2
  69. Duration                                 : 1 h 53 min
  70. Bit rate                                 : 192 kb/s
  71. Channel(s)                               : 6 channels
  72. Channel layout                           : C L R Ls Rs LFE
  73. Sampling rate                            : 48.0 kHz
  74. Frame rate                               : 46.875 FPS (1024 SPF)
  75. Compression mode                         : Lossy
  76. Delay relative to video                  : 6 ms
  77. Stream size                              : 154 MiB (12%)
  78. Title                                    : [Www.MoviezAddiction.Site]
  79. Language                                 : Hindi
  80. Default                                  : No
  81. Forced                                   : No
  82.  
  83. Text #1
  84. ID                                       : 4
  85. Format                                   : PGS
  86. Muxing mode                              : zlib
  87. Codec ID                                 : S_HDMV/PGS
  88. Codec ID/Info                            : Picture based subtitle format used on BDs/HD-DVDs
  89. Duration                                 : 1 h 51 min
  90. Bit rate                                 : 14.9 kb/s
  91. Count of elements                        : 1822
  92. Stream size                              : 11.9 MiB (1%)
  93. Title                                    : [Www.MoviezAddiction.Site]
  94. Language                                 : Hindi
  95. Default                                  : Yes
  96. Forced                                   : No
  97.  
  98. Text #2
  99. ID                                       : 5
  100. Format                                   : UTF-8
  101. Codec ID                                 : S_TEXT/UTF8
  102. Codec ID/Info                            : UTF-8 Plain Text
  103. Duration                                 : 1 h 48 min
  104. Bit rate                                 : 34 b/s
  105. Count of elements                        : 916
  106. Stream size                              : 27.2 KiB (0%)
  107. Title                                    : [Www.MoviezAddiction.Site]
  108. Language                                 : English
  109. Default                                  : No
  110. Forced                                   : No