The text below is selected, press Ctrl+C to copy to your clipboard. (⌘+C on Mac) No line numbers will be copied.
The Wonder (2022) 1080p NF...

17th November 2022 08:48:41 AM | Views: 17
  1. Format                                   : Matroska
  2. Format version                           : Version 4
  3. File size                                : 6.74 GiB
  4. Duration                                 : 1 h 49 min
  5. Overall bit rate mode                    : Variable
  6. Overall bit rate                         : 8 801 kb/s
  7. Movie name                               : The Wonder (2022) 1080p NF WEB-DL x264 Dual Audio [Hindi DDP5.1 + English DDP5.1 Atmos] ESub 6.74GB [MoviezAddiction.life]
  8. Encoded date                             : UTC 2022-11-16 14:57:12
  9. Writing application                      : mkvmerge v72.0.0 ('Minuano (Six-eight)') 64-bit
  10. Writing library                          : libebml v1.4.4 + libmatroska v1.7.1
  11.  
  12. Video
  13. ID                                       : 1
  14. Format                                   : AVC
  15. Format/Info                              : Advanced Video Codec
  16. Format profile                           : [email protected]
  17. Format settings                          : CABAC / 4 Ref Frames
  18. Format settings, CABAC                   : Yes
  19. Format settings, Reference frames        : 4 frames
  20. Codec ID                                 : V_MPEG4/ISO/AVC
  21. Duration                                 : 1 h 49 min
  22. Bit rate mode                            : Variable
  23. Bit rate                                 : 7 393 kb/s
  24. Maximum bit rate                         : 20.0 Mb/s
  25. Width                                    : 1 920 pixels
  26. Height                                   : 1 080 pixels
  27. Display aspect ratio                     : 16:9
  28. Frame rate mode                          : Constant
  29. Frame rate                               : 24.000 FPS
  30. Color space                              : YUV
  31. Chroma subsampling                       : 4:2:0
  32. Bit depth                                : 8 bits
  33. Scan type                                : Progressive
  34. Bits/(Pixel*Frame)                       : 0.149
  35. Stream size                              : 5.66 GiB (84%)
  36. Default                                  : Yes
  37. Forced                                   : No
  38.  
  39. Audio #1
  40. ID                                       : 2
  41. Format                                   : E-AC-3
  42. Format/Info                              : Enhanced AC-3
  43. Commercial name                          : Dolby Digital Plus
  44. Codec ID                                 : A_EAC3
  45. Duration                                 : 1 h 49 min
  46. Bit rate mode                            : Constant
  47. Bit rate                                 : 640 kb/s
  48. Channel(s)                               : 6 channels
  49. Channel layout                           : L R C LFE Ls Rs
  50. Sampling rate                            : 48.0 kHz
  51. Frame rate                               : 31.250 FPS (1536 SPF)
  52. Compression mode                         : Lossy
  53. Stream size                              : 502 MiB (7%)
  54. Title                                    : Hindi
  55. Language                                 : Hindi
  56. Service kind                             : Complete Main
  57. Default                                  : Yes
  58. Forced                                   : No
  59.  
  60. Audio #2
  61. ID                                       : 3
  62. Format                                   : E-AC-3 JOC
  63. Format/Info                              : Enhanced AC-3 with Joint Object Coding
  64. Commercial name                          : Dolby Digital Plus with Dolby Atmos
  65. Codec ID                                 : A_EAC3
  66. Duration                                 : 1 h 49 min
  67. Bit rate mode                            : Constant
  68. Bit rate                                 : 768 kb/s
  69. Channel(s)                               : 6 channels
  70. Channel layout                           : L R C LFE Ls Rs
  71. Sampling rate                            : 48.0 kHz
  72. Frame rate                               : 31.250 FPS (1536 SPF)
  73. Compression mode                         : Lossy
  74. Stream size                              : 603 MiB (9%)
  75. Title                                    : English
  76. Language                                 : English
  77. Service kind                             : Complete Main
  78. Default                                  : No
  79. Forced                                   : No
  80. Complexity index                         : 16
  81. Number of dynamic objects                : 15
  82. Bed channel count                        : 1 channel
  83. Bed channel configuration                : LFE
  84.  
  85. Text
  86. ID                                       : 4
  87. Format                                   : UTF-8
  88. Codec ID                                 : S_TEXT/UTF8
  89. Codec ID/Info                            : UTF-8 Plain Text
  90. Duration                                 : 1 h 41 min
  91. Bit rate                                 : 36 b/s
  92. Frame rate                               : 0.164 FPS
  93. Count of elements                        : 1001
  94. Stream size                              : 26.9 KiB (0%)
  95. Title                                    : English [SRT]
  96. Language                                 : English
  97. Default                                  : Yes
  98. Forced                                   : No