The text below is selected, press Ctrl+C to copy to your clipboard. (⌘+C on Mac) No line numbers will be copied.
Overdose (2022) 2160p AMZN UHD...

4th November 2022 03:10:33 PM | Views: 17
  1. Format                                   : Matroska
  2. Format version                           : Version 4
  3. File size                                : 13.2 GiB
  4. Duration                                 : 1 h 59 min
  5. Overall bit rate                         : 15.7 Mb/s
  6. Movie name                               : Overdose (2022) 2160p AMZN UHD WEB-DL x265 10bit HDR HEVC Dual Audio [Hindi DDP5.1 + English DDP5.1] ESub 13.1GB [MoviezAddiction.life]
  7. Encoded date                             : UTC 2022-11-04 09:20:08
  8. Writing application                      : mkvmerge v71.1.0 ('Fortitude') 64-bit
  9. Writing library                          : libebml v1.4.4 + libmatroska v1.7.1
  10.  
  11. Video
  12. ID                                       : 1
  13. Format                                   : HEVC
  14. Format/Info                              : High Efficiency Video Coding
  15. Format profile                           : Main [email protected]@Main
  16. HDR format                               : SMPTE ST 2094 App 4, Version 1, HDR10+ Profile B compatible
  17. Codec ID                                 : V_MPEGH/ISO/HEVC
  18. Duration                                 : 1 h 59 min
  19. Bit rate                                 : 14.4 Mb/s
  20. Width                                    : 3 840 pixels
  21. Height                                   : 1 600 pixels
  22. Display aspect ratio                     : 2.40:1
  23. Frame rate mode                          : Constant
  24. Frame rate                               : 24.000 FPS
  25. Color space                              : YUV
  26. Chroma subsampling                       : 4:2:0
  27. Bit depth                                : 10 bits
  28. Bits/(Pixel*Frame)                       : 0.098
  29. Stream size                              : 12.1 GiB (92%)
  30. Default                                  : Yes
  31. Forced                                   : No
  32. Color range                              : Limited
  33. Color primaries                          : BT.2020
  34. Transfer characteristics                 : PQ
  35. Matrix coefficients                      : BT.2020 non-constant
  36. Mastering display color primaries        : Display P3
  37. Mastering display luminance              : min: 0.0001 cd/m2, max: 1000 cd/m2
  38. Maximum Content Light Level              : 998 cd/m2
  39. Maximum Frame-Average Light Level        : 267 cd/m2
  40.  
  41. Audio #1
  42. ID                                       : 2
  43. Format                                   : E-AC-3
  44. Format/Info                              : Enhanced AC-3
  45. Commercial name                          : Dolby Digital Plus
  46. Codec ID                                 : A_EAC3
  47. Duration                                 : 1 h 59 min
  48. Bit rate mode                            : Constant
  49. Bit rate                                 : 640 kb/s
  50. Channel(s)                               : 6 channels
  51. Channel layout                           : L R C LFE Ls Rs
  52. Sampling rate                            : 48.0 kHz
  53. Frame rate                               : 31.250 FPS (1536 SPF)
  54. Compression mode                         : Lossy
  55. Stream size                              : 548 MiB (4%)
  56. Title                                    : Hindi
  57. Language                                 : Hindi
  58. Service kind                             : Complete Main
  59. Default                                  : Yes
  60. Forced                                   : No
  61.  
  62. Audio #2
  63. ID                                       : 3
  64. Format                                   : E-AC-3
  65. Format/Info                              : Enhanced AC-3
  66. Commercial name                          : Dolby Digital Plus
  67. Codec ID                                 : A_EAC3
  68. Duration                                 : 1 h 59 min
  69. Bit rate mode                            : Constant
  70. Bit rate                                 : 640 kb/s
  71. Channel(s)                               : 6 channels
  72. Channel layout                           : L R C LFE Ls Rs
  73. Sampling rate                            : 48.0 kHz
  74. Frame rate                               : 31.250 FPS (1536 SPF)
  75. Compression mode                         : Lossy
  76. Stream size                              : 548 MiB (4%)
  77. Title                                    : English
  78. Language                                 : English
  79. Service kind                             : Complete Main
  80. Default                                  : No
  81. Forced                                   : No
  82.  
  83. Text
  84. ID                                       : 4
  85. Format                                   : UTF-8
  86. Codec ID                                 : S_TEXT/UTF8
  87. Codec ID/Info                            : UTF-8 Plain Text
  88. Duration                                 : 1 h 58 min
  89. Bit rate                                 : 44 b/s
  90. Frame rate                               : 0.186 FPS
  91. Count of elements                        : 1323
  92. Stream size                              : 38.3 KiB (0%)
  93. Title                                    : English [SRT]
  94. Language                                 : English
  95. Default                                  : Yes
  96. Forced                                   : No
  97.  
  98. Menu
  99. 00:00:00.000                             : en:Amazon Original
  100. 00:00:05.000                             : en:Studio Logo
  101. 00:00:30.000                             : en:Scene 3
  102. 00:00:43.000                             : en:Scene 4
  103. 00:01:39.000                             : en:Title Sequence
  104. 00:01:46.000                             : en:Scene 6
  105. 00:03:35.000                             : en:Scene 7
  106. 00:04:58.000                             : en:Scene 8
  107. 00:06:04.000                             : en:Scene 9
  108. 00:07:33.000                             : en:Scene 10
  109. 00:08:22.000                             : en:Scene 11
  110. 00:09:36.000                             : en:Scene 12
  111. 00:11:28.000                             : en:Scene 13
  112. 00:14:17.000                             : en:Scene 14
  113. 00:15:14.000                             : en:Scene 15
  114. 00:19:15.000                             : en:Scene 16
  115. 00:19:43.000                             : en:Scene 17
  116. 00:21:35.000                             : en:Scene 18
  117. 00:23:23.000                             : en:Scene 19
  118. 00:25:01.000                             : en:Scene 20
  119. 00:26:24.000                             : en:Scene 21
  120. 00:27:27.000                             : en:Scene 22
  121. 00:28:23.000                             : en:Scene 23
  122. 00:29:59.000                             : en:Scene 24
  123. 00:30:30.000                             : en:Scene 25
  124. 00:33:27.000                             : en:Scene 26
  125. 00:37:51.000                             : en:Scene 27
  126. 00:40:50.000                             : en:Scene 28
  127. 00:42:57.000                             : en:Scene 29
  128. 00:44:28.000                             : en:Scene 30
  129. 00:45:20.000                             : en:Scene 31
  130. 00:48:52.000                             : en:Scene 32
  131. 00:50:43.000                             : en:Scene 33
  132. 00:53:34.000                             : en:Scene 34
  133. 00:56:15.000                             : en:Scene 35
  134. 00:57:33.000                             : en:Scene 36
  135. 00:58:36.000                             : en:Scene 37
  136. 00:59:36.000                             : en:Scene 38
  137. 01:00:24.000                             : en:Scene 39
  138. 01:05:43.000                             : en:Scene 40
  139. 01:06:43.000                             : en:Scene 41
  140. 01:09:22.000                             : en:Scene 42
  141. 01:10:49.000                             : en:Scene 43
  142. 01:11:57.000                             : en:Scene 44
  143. 01:13:52.000                             : en:Scene 45
  144. 01:15:40.000                             : en:Scene 46
  145. 01:18:31.000                             : en:Scene 47
  146. 01:20:31.000                             : en:Scene 48
  147. 01:20:52.000                             : en:Scene 49
  148. 01:24:31.000                             : en:Scene 50
  149. 01:26:47.000                             : en:Scene 51
  150. 01:28:09.000                             : en:Scene 52
  151. 01:28:23.000                             : en:Scene 53
  152. 01:28:37.000                             : en:Scene 54
  153. 01:30:20.000                             : en:Scene 55
  154. 01:30:59.000                             : en:Scene 56
  155. 01:34:55.000                             : en:Scene 57
  156. 01:36:06.000                             : en:Scene 58
  157. 01:38:47.000                             : en:Scene 59
  158. 01:39:51.000                             : en:Scene 60
  159. 01:40:35.000                             : en:Scene 61
  160. 01:41:20.000                             : en:Scene 62
  161. 01:43:04.000                             : en:Scene 63
  162. 01:47:40.000                             : en:Scene 64
  163. 01:51:40.000                             : en:Scene 65
  164. 01:53:23.000                             : en:End Credits