The text below is selected, press Ctrl+C to copy to your clipboard. (⌘+C on Mac) No line numbers will be copied.
Mardaani

20th September 2020 05:03:32 AM | Views: 23
  1. General
  2. Unique ID                                : 1553392365651935981097537668056758158 (0x12B2C281FAB2A47663FDF99C852378E)
  3. Complete name                            : Mardaani 2014 1080p BluRay x264 Hindi DD 5.1 ~LustMovies.pro~ (3.2 G).mkv
  4. Format                                   : Matroska
  5. Format version                           : Version 4
  6. File size                                : 3.18 GiB
  7. Duration                                 : 1 h 54 min
  8. Overall bit rate                         : 3 988 kb/s
  9. Movie name                               : LustMovies.pro | Mardaani 2014
  10. Encoded date                             : UTC 2020-09-19 17:50:57
  11. Writing application                      : HandBrake 1.2.1 2019021900
  12. Writing library                          : Lavf58.20.100
  13. ErrorDetectionType                       : Per level 1
  14.  
  15. Video
  16. ID                                       : 1
  17. Format                                   : AVC
  18. Format/Info                              : Advanced Video Codec
  19. Format profile                           : [email protected]
  20. Format settings                          : CABAC / 4 Ref Frames
  21. Format settings, CABAC                   : Yes
  22. Format settings, Reference frames        : 4 frames
  23. Codec ID                                 : V_MPEG4/ISO/AVC
  24. Duration                                 : 1 h 54 min
  25. Bit rate                                 : 3 500 kb/s
  26. Width                                    : 1 920 pixels
  27. Height                                   : 816 pixels
  28. Display aspect ratio                     : 2.35:1
  29. Frame rate mode                          : Constant
  30. Frame rate                               : 24.000 FPS
  31. Color space                              : YUV
  32. Chroma subsampling                       : 4:2:0
  33. Bit depth                                : 8 bits
  34. Scan type                                : Progressive
  35. Bits/(Pixel*Frame)                       : 0.093
  36. Stream size                              : 2.76 GiB (87%)
  37. Title                                    : LustMovies.pro
  38. Writing library                          : x264 core 152 r2854 e9a5903
  39. Encoding settings                        : cabac=1 / ref=1 / deblock=1:0:0 / analyse=0x3:0x113 / me=hex / subme=2 / psy=1 / psy_rd=1.00:0.00 / mixed_ref=0 / me_range=16 / chroma_me=1 / trellis=0 / 8x8dct=1 / cqm=0 / deadzone=21,11 / fast_pskip=1 / chroma_qp_offset=0 / threads=25 / lookahead_threads=6 / sliced_threads=0 / nr=0 / decimate=1 / interlaced=0 / bluray_compat=0 / constrained_intra=0 / bframes=3 / b_pyramid=2 / b_adapt=1 / b_bias=0 / direct=1 / weightb=1 / open_gop=0 / weightp=1 / keyint=240 / keyint_min=24 / scenecut=40 / intra_refresh=0 / rc_lookahead=10 / rc=2pass / mbtree=1 / bitrate=3500 / ratetol=1.0 / qcomp=0.60 / qpmin=0 / qpmax=69 / qpstep=4 / cplxblur=20.0 / qblur=0.5 / vbv_maxrate=62500 / vbv_bufsize=78125 / nal_hrd=none / filler=0 / ip_ratio=1.40 / aq=1:1.00
  40. Default                                  : Yes
  41. Forced                                   : No
  42. Color range                              : Limited
  43. Color primaries                          : BT.709
  44. Transfer characteristics                 : BT.709
  45. Matrix coefficients                      : BT.709
  46. Duration_Source                          : General_Duration
  47.  
  48. Audio
  49. ID                                       : 2
  50. Format                                   : AC-3
  51. Format/Info                              : Audio Coding 3
  52. Commercial name                          : Dolby Digital
  53. Codec ID                                 : A_AC3
  54. Duration                                 : 1 h 54 min
  55. Bit rate mode                            : Constant
  56. Bit rate                                 : 448 kb/s
  57. Channel(s)                               : 6 channels
  58. Channel layout                           : L R C LFE Ls Rs
  59. Sampling rate                            : 48.0 kHz
  60. Frame rate                               : 31.250 FPS (1536 SPF)
  61. Compression mode                         : Lossy
  62. Delay relative to video                  : -5 ms
  63. Stream size                              : 366 MiB (11%)
  64. Title                                    : LustMovies.pro
  65. Language                                 : Hindi
  66. Service kind                             : Complete Main
  67. Default                                  : Yes
  68. Forced                                   : No
  69. Duration_Source                          : General_Duration
  70.  
  71. Text
  72. ID                                       : 3
  73. Format                                   : PGS
  74. Codec ID                                 : S_HDMV/PGS
  75. Codec ID/Info                            : Picture based subtitle format used on BDs/HD-DVDs
  76. Title                                    : LustMovies.pro
  77. Language                                 : English
  78. Default                                  : Yes
  79. Forced                                   : Yes
  80.  
  81. General
  82. Unique ID                                : 313174941764799645782314673438483228059 (0xEB9B4CC0D991BDAD714F0EFD94A3259B)
  83. Complete name                            : Mardaani 2014 720p BluRay x264 Hindi DD 5.1 ~LustMovies.pro~ (1.0 G).mkv
  84. Format                                   : Matroska
  85. Format version                           : Version 4
  86. File size                                : 1.01 GiB
  87. Duration                                 : 1 h 54 min
  88. Overall bit rate                         : 1 264 kb/s
  89. Movie name                               : LustMovies.pro | Mardaani 2014
  90. Encoded date                             : UTC 2020-09-19 21:17:50
  91. Writing application                      : HandBrake 1.2.1 2019021900
  92. Writing library                          : Lavf58.20.100
  93. ErrorDetectionType                       : Per level 1
  94.  
  95. Video
  96. ID                                       : 1
  97. Format                                   : AVC
  98. Format/Info                              : Advanced Video Codec
  99. Format profile                           : [email protected]
  100. Format settings                          : CABAC / 4 Ref Frames
  101. Format settings, CABAC                   : Yes
  102. Format settings, Reference frames        : 4 frames
  103. Codec ID                                 : V_MPEG4/ISO/AVC
  104. Duration                                 : 1 h 54 min
  105. Bit rate                                 : 1 000 kb/s
  106. Width                                    : 1 280 pixels
  107. Height                                   : 720 pixels
  108. Display aspect ratio                     : 2.35:1
  109. Frame rate mode                          : Constant
  110. Frame rate                               : 24.000 FPS
  111. Color space                              : YUV
  112. Chroma subsampling                       : 4:2:0
  113. Bit depth                                : 8 bits
  114. Scan type                                : Progressive
  115. Bits/(Pixel*Frame)                       : 0.045
  116. Stream size                              : 830 MiB (80%)
  117. Title                                    : LustMovies.pro
  118. Writing library                          : x264 core 152 r2854 e9a5903
  119. Encoding settings                        : cabac=1 / ref=1 / deblock=1:-1:-1 / analyse=0x3:0x113 / me=hex / subme=2 / psy=1 / psy_rd=1.00:0.15 / mixed_ref=0 / me_range=16 / chroma_me=1 / trellis=0 / 8x8dct=1 / cqm=0 / deadzone=21,11 / fast_pskip=1 / chroma_qp_offset=0 / threads=22 / lookahead_threads=5 / sliced_threads=0 / nr=0 / decimate=1 / interlaced=0 / bluray_compat=0 / constrained_intra=0 / bframes=3 / b_pyramid=2 / b_adapt=1 / b_bias=0 / direct=1 / weightb=1 / open_gop=0 / weightp=1 / keyint=240 / keyint_min=24 / scenecut=40 / intra_refresh=0 / rc_lookahead=10 / rc=2pass / mbtree=1 / bitrate=1000 / ratetol=1.0 / qcomp=0.60 / qpmin=0 / qpmax=69 / qpstep=4 / cplxblur=20.0 / qblur=0.5 / vbv_maxrate=62500 / vbv_bufsize=78125 / nal_hrd=none / filler=0 / ip_ratio=1.40 / aq=1:1.00
  120. Default                                  : Yes
  121. Forced                                   : No
  122. Color range                              : Limited
  123. Color primaries                          : BT.709
  124. Transfer characteristics                 : BT.709
  125. Matrix coefficients                      : BT.709
  126. Duration_Source                          : General_Duration
  127.  
  128. Audio
  129. ID                                       : 2
  130. Format                                   : AC-3
  131. Format/Info                              : Audio Coding 3
  132. Commercial name                          : Dolby Digital
  133. Codec ID                                 : A_AC3
  134. Duration                                 : 1 h 54 min
  135. Bit rate mode                            : Constant
  136. Bit rate                                 : 224 kb/s
  137. Channel(s)                               : 6 channels
  138. Channel layout                           : L R C LFE Ls Rs
  139. Sampling rate                            : 48.0 kHz
  140. Frame rate                               : 31.250 FPS (1536 SPF)
  141. Compression mode                         : Lossy
  142. Delay relative to video                  : -5 ms
  143. Stream size                              : 183 MiB (18%)
  144. Title                                    : LustMovies.pro
  145. Language                                 : Hindi
  146. Service kind                             : Complete Main
  147. Default                                  : Yes
  148. Forced                                   : No
  149. Duration_Source                          : General_Duration
  150.  
  151. Text
  152. ID                                       : 3
  153. Format                                   : PGS
  154. Codec ID                                 : S_HDMV/PGS
  155. Codec ID/Info                            : Picture based subtitle format used on BDs/HD-DVDs
  156. Title                                    : LustMovies.pro
  157. Language                                 : English
  158. Default                                  : Yes
  159. Forced                                   : Yes
  160.  
  161. General
  162. Unique ID                                : 16236569015645021409347013225221886729 (0xC370CA88078C22628807F1AC49A9309)
  163. Complete name                            : Mardaani 2014 480p BluRay x264 Hindi AAC 2.0 ~LustMovies.pro~ (413.0 M).mkv
  164. Format                                   : Matroska
  165. Format version                           : Version 4
  166. File size                                : 413 MiB
  167. Duration                                 : 1 h 54 min
  168. Overall bit rate                         : 505 kb/s
  169. Movie name                               : LustMovies.pro | Mardaani 2014
  170. Encoded date                             : UTC 2020-09-20 00:27:43
  171. Writing application                      : HandBrake 1.2.1 2019021900
  172. Writing library                          : Lavf58.20.100
  173. ErrorDetectionType                       : Per level 1
  174.  
  175. Video
  176. ID                                       : 1
  177. Format                                   : AVC
  178. Format/Info                              : Advanced Video Codec
  179. Format profile                           : [email protected]
  180. Format settings                          : CABAC / 4 Ref Frames
  181. Format settings, CABAC                   : Yes
  182. Format settings, Reference frames        : 4 frames
  183. Codec ID                                 : V_MPEG4/ISO/AVC
  184. Duration                                 : 1 h 54 min
  185. Nominal bit rate                         : 400 kb/s
  186. Width                                    : 720 pixels
  187. Height                                   : 480 pixels
  188. Display aspect ratio                     : 2.35:1
  189. Frame rate mode                          : Constant
  190. Frame rate                               : 24.000 FPS
  191. Color space                              : YUV
  192. Chroma subsampling                       : 4:2:0
  193. Bit depth                                : 8 bits
  194. Scan type                                : Progressive
  195. Bits/(Pixel*Frame)                       : 0.048
  196. Title                                    : LustMovies.pro
  197. Writing library                          : x264 core 152 r2854 e9a5903
  198. Encoding settings                        : cabac=1 / ref=1 / deblock=1:0:0 / analyse=0x3:0x113 / me=hex / subme=2 / psy=1 / psy_rd=1.00:0.00 / mixed_ref=0 / me_range=16 / chroma_me=1 / trellis=0 / 8x8dct=1 / cqm=0 / deadzone=21,11 / fast_pskip=1 / chroma_qp_offset=0 / threads=15 / lookahead_threads=3 / sliced_threads=0 / nr=0 / decimate=1 / interlaced=0 / bluray_compat=0 / constrained_intra=0 / bframes=3 / b_pyramid=2 / b_adapt=1 / b_bias=0 / direct=1 / weightb=1 / open_gop=0 / weightp=1 / keyint=240 / keyint_min=24 / scenecut=40 / intra_refresh=0 / rc_lookahead=10 / rc=2pass / mbtree=1 / bitrate=400 / ratetol=1.0 / qcomp=0.60 / qpmin=0 / qpmax=69 / qpstep=4 / cplxblur=20.0 / qblur=0.5 / vbv_maxrate=17500 / vbv_bufsize=17500 / nal_hrd=none / filler=0 / ip_ratio=1.40 / aq=1:1.00
  199. Default                                  : Yes
  200. Forced                                   : No
  201. Color range                              : Limited
  202. Color primaries                          : BT.709
  203. Transfer characteristics                 : BT.709
  204. Matrix coefficients                      : BT.709
  205. Duration_Source                          : General_Duration
  206.  
  207. Audio
  208. ID                                       : 2
  209. Format                                   : AAC LC
  210. Format/Info                              : Advanced Audio Codec Low Complexity
  211. Codec ID                                 : A_AAC-2
  212. Duration                                 : 1 h 54 min
  213. Channel(s)                               : 2 channels
  214. Channel layout                           : L R
  215. Sampling rate                            : 48.0 kHz
  216. Frame rate                               : 46.875 FPS (1024 SPF)
  217. Compression mode                         : Lossy
  218. Delay relative to video                  : -21 ms
  219. Title                                    : LustMovies.pro
  220. Language                                 : Hindi
  221. Default                                  : Yes
  222. Forced                                   : No
  223. Duration_Source                          : General_Duration
  224.  
  225. Text
  226. ID                                       : 3
  227. Format                                   : PGS
  228. Codec ID                                 : S_HDMV/PGS
  229. Codec ID/Info                            : Picture based subtitle format used on BDs/HD-DVDs
  230. Title                                    : LustMovies.pro
  231. Language                                 : English
  232. Default                                  : Yes
  233. Forced                                   : Yes