The text below is selected, press Ctrl+C to copy to your clipboard. (⌘+C on Mac) No line numbers will be copied.
MediaInfo

19th March 2019 03:59:04 AM | Views: 134
  1. Format                      : Matroska
  2. Format version              : Version 4 / Version 2
  3. File size                   : 1.05 GiB
  4. Duration                    : 2 h 12 min
  5. Overall bit rate            : 1 129 kb/s
  6. Movie name                  : Uri The Surgical Strike.2019.720p.WEB-DL.x264-MkvCage.ws
  7. Encoded date                : UTC 2019-03-19 03:53:49
  8. Writing application         : mkvmerge v30.0.0 ('Interstellar') 64-bit
  9. Writing library             : libebml v1.3.6 + libmatroska v1.4.9
  10. Cover                       : Yes
  11. Attachments                 : cover.jpg
  12.  
  13. Video
  14. ID                          : 2
  15. Format                      : AVC
  16. Format/Info                 : Advanced Video Codec
  17. Format profile              : [email protected]
  18. Format settings             : CABAC / 5 Ref Frames
  19. Format settings, CABAC      : Yes
  20. Format settings, ReFrames   : 5 frames
  21. Codec ID                    : V_MPEG4/ISO/AVC
  22. Duration                    : 2 h 12 min
  23. Bit rate                    : 1 029 kb/s
  24. Width                       : 1 280 pixels
  25. Height                      : 538 pixels
  26. Display aspect ratio        : 2.40:1
  27. Frame rate mode             : Constant
  28. Frame rate                  : 25.000 FPS
  29. Color space                 : YUV
  30. Chroma subsampling          : 4:2:0
  31. Bit depth                   : 8 bits
  32. Scan type                   : Progressive
  33. Bits/(Pixel*Frame)          : 0.060
  34. Stream size                 : 976 MiB (91%)
  35. Writing library             : x264 core 157 r2935 545de2f
  36. Encoding settings           : cabac=1 / ref=5 / deblock=1:-1:-1 / analyse=0x3:0x133 / me=umh / subme=9 / psy=1 / psy_rd=1.00:0.10 / mixed_ref=1 / me_range=24 / chroma_me=1 / trellis=2 / 8x8dct=1 / cqm=0 / deadzone=21,11 / fast_pskip=1 / chroma_qp_offset=-3 / threads=17 / lookahead_threads=1 / sliced_threads=0 / nr=0 / decimate=1 / interlaced=0 / bluray_compat=0 / constrained_intra=0 / bframes=3 / b_pyramid=2 / b_adapt=2 / b_bias=0 / direct=3 / weightb=1 / open_gop=0 / weightp=2 / keyint=250 / keyint_min=25 / scenecut=40 / intra_refresh=0 / rc_lookahead=60 / rc=2pass / mbtree=1 / bitrate=1029 / ratetol=1.0 / qcomp=0.60 / qpmin=0 / qpmax=69 / qpstep=4 / cplxblur=20.0 / qblur=0.5 / ip_ratio=1.40 / aq=1:1.00
  37. Default                     : Yes
  38. Forced                      : No
  39.  
  40. Audio
  41. ID                          : 3
  42. Format                      : AAC
  43. Format/Info                 : Advanced Audio Codec
  44. Format profile              : LC
  45. Codec ID                    : A_AAC-2
  46. Duration                    : 2 h 12 min
  47. Bit rate                    : 96.0 kb/s
  48. Channel(s)                  : 2 channels
  49. Channel positions           : Front: L R
  50. Sampling rate               : 48.0 kHz
  51. Frame rate                  : 46.875 FPS (1024 SPF)
  52. Compression mode            : Lossy
  53. Stream size                 : 92.3 MiB (9%)
  54. Language                    : Hindi
  55. Default                     : Yes
  56. Forced                      : No
  57.  
  58. Text
  59. ID                          : 1
  60. Format                      : UTF-8
  61. Codec ID                    : S_TEXT/UTF8
  62. Codec ID/Info               : UTF-8 Plain Text
  63. Duration                    : 2 h 11 min
  64. Bit rate                    : 41 b/s
  65. Count of elements           : 1191
  66. Stream size                 : 39.9 KiB (0%)
  67. Language                    : English
  68. Default                     : Yes
  69. Forced                      : No