The text below is selected, press Ctrl+C to copy to your clipboard. (⌘+C on Mac) No line numbers will be copied.
Son of Sardaar (2012) 1080p

10th January 2022 03:06:43 PM | Views: 12
  1. Format                                   : Matroska
  2. Format version                           : Version 4
  3. File size                                : 8.14 GiB
  4. Duration                                 : 2 h 20 min
  5. Overall bit rate mode                    : Variable
  6. Overall bit rate                         : 8 281 kb/s
  7. Movie name                               : Son of Sardaar (2012) 1080p BluRay x264 Hindi DTS-HD MA 5.1 ESub 8.14GB [www.BollyMovies.info]
  8. Encoded date                             : UTC 2022-01-10 14:02:45
  9. Writing application                      : mkvmerge v47.0.0 ('Black Flag') 64-bit
  10. Writing library                          : libebml v1.3.10 + libmatroska v1.5.2
  11.  
  12. Video
  13. ID                                       : 1
  14. Format                                   : AVC
  15. Format/Info                              : Advanced Video Codec
  16. Format profile                           : [email protected]
  17. Format settings                          : CABAC / 5 Ref Frames
  18. Format settings, CABAC                   : Yes
  19. Format settings, Reference frames        : 5 frames
  20. Codec ID                                 : V_MPEG4/ISO/AVC
  21. Duration                                 : 2 h 20 min
  22. Bit rate                                 : 4 000 kb/s
  23. Width                                    : 1 920 pixels
  24. Height                                   : 832 pixels
  25. Display aspect ratio                     : 2.35:1
  26. Frame rate mode                          : Variable
  27. Frame rate                               : 24.000 FPS
  28. Color space                              : YUV
  29. Chroma subsampling                       : 4:2:0
  30. Bit depth                                : 8 bits
  31. Scan type                                : Progressive
  32. Bits/(Pixel*Frame)                       : 0.104
  33. Stream size                              : 3.93 GiB (48%)
  34. Title                                    : [www.BollyMovies.info]
  35. Default                                  : Yes
  36. Forced                                   : No
  37.  
  38. Audio
  39. ID                                       : 2
  40. Format                                   : DTS XLL
  41. Format/Info                              : Digital Theater Systems
  42. Commercial name                          : DTS-HD Master Audio
  43. Codec ID                                 : A_DTS
  44. Duration                                 : 2 h 20 min
  45. Bit rate mode                            : Variable
  46. Bit rate                                 : 4 252 kb/s
  47. Channel(s)                               : 6 channels
  48. Channel layout                           : C L R Ls Rs LFE
  49. Sampling rate                            : 48.0 kHz
  50. Frame rate                               : 93.750 FPS (512 SPF)
  51. Bit depth                                : 24 bits
  52. Compression mode                         : Lossless
  53. Stream size                              : 4.18 GiB (51%)
  54. Title                                    : [www.MoviezAddiction.art] - Hindi
  55. Language                                 : Hindi
  56. Default                                  : Yes
  57. Forced                                   : No
  58.  
  59. Text
  60. ID                                       : 3
  61. Format                                   : PGS
  62. Codec ID                                 : S_HDMV/PGS
  63. Codec ID/Info                            : Picture based subtitle format used on BDs/HD-DVDs
  64. Duration                                 : 2 h 13 min
  65. Bit rate                                 : 26.5 kb/s
  66. Count of elements                        : 3738
  67. Stream size                              : 25.4 MiB (0%)
  68. Title                                    : [www.MoviezAddiction.art] - English [PGS]
  69. Language                                 : English
  70. Default                                  : Yes
  71. Forced                                   : No
  72.  
  73. Menu
  74. 00:00:00.000                             : Chapter 01
  75. 00:02:14.500                             : Chapter 02
  76. 00:05:26.625                             : Chapter 03
  77. 00:09:59.000                             : Chapter 04
  78. 00:11:18.292                             : Chapter 05
  79. 00:12:00.417                             : Chapter 06
  80. 00:14:59.542                             : Chapter 07
  81. 00:18:44.667                             : Chapter 08
  82. 00:24:07.792                             : Chapter 09
  83. 00:33:26.750                             : Chapter 10
  84. 00:35:58.125                             : Chapter 11
  85. 00:41:40.125                             : Chapter 12
  86. 00:47:54.458                             : Chapter 13
  87. 00:54:29.625                             : Chapter 14
  88. 01:01:00.000                             : Chapter 15
  89. 01:08:58.167                             : Chapter 16
  90. 01:12:48.542                             : Chapter 17
  91. 01:17:01.958                             : Chapter 18
  92. 01:20:50.458                             : Chapter 19
  93. 01:24:14.833                             : Chapter 20
  94. 01:34:19.083                             : Chapter 21
  95. 01:36:10.250                             : Chapter 22
  96. 01:39:19.792                             : Chapter 23
  97. 01:41:21.417                             : Chapter 24
  98. 01:45:25.542                             : Chapter 25
  99. 01:51:41.458                             : Chapter 26
  100. 01:56:43.917                             : Chapter 27
  101. 02:04:05.375                             : Chapter 28
  102. 02:12:07.458                             : Chapter 29
  103. 02:16:08.833                             : Chapter 30