The text below is selected, press Ctrl+C to copy to your clipboard. (⌘+C on Mac) No line numbers will be copied.
Mrs. Harris Goes to Paris...

19th January 2023 02:42:48 AM | Views: 5
  1. Format                                   : Matroska
  2. Format version                           : Version 4
  3. File size                                : 15.4 GiB
  4. Duration                                 : 1 h 55 min
  5. Overall bit rate mode                    : Variable
  6. Overall bit rate                         : 19.0 Mb/s
  7. Movie name                               : Mrs. Harris Goes to Paris (2022) 2160p AMZN UHD WEB-DL x265 10bit HDR HEVC Dual Audio [Hindi DDP5.1 + English DTS-HD MA 5.1] ESub 15.3GB [MoviezAddiction]
  8. Encoded date                             : UTC 2023-01-18 12:46:47
  9. Writing application                      : mkvmerge v72.0.0 ('Minuano (Six-eight)') 64-bit
  10. Writing library                          : libebml v1.4.4 + libmatroska v1.7.1
  11.  
  12. Video
  13. ID                                       : 1
  14. Format                                   : HEVC
  15. Format/Info                              : High Efficiency Video Coding
  16. Format profile                           : Main [email protected]@Main
  17. HDR format                               : SMPTE ST 2094 App 4, Version 1, HDR10+ Profile B compatible
  18. Codec ID                                 : V_MPEGH/ISO/HEVC
  19. Duration                                 : 1 h 55 min
  20. Bit rate                                 : 15.0 Mb/s
  21. Width                                    : 3 840 pixels
  22. Height                                   : 1 600 pixels
  23. Display aspect ratio                     : 2.40:1
  24. Frame rate mode                          : Constant
  25. Frame rate                               : 23.976 (24000/1001) FPS
  26. Color space                              : YUV
  27. Chroma subsampling                       : 4:2:0
  28. Bit depth                                : 10 bits
  29. Bits/(Pixel*Frame)                       : 0.102
  30. Stream size                              : 12.2 GiB (79%)
  31. Default                                  : Yes
  32. Forced                                   : No
  33. Color range                              : Limited
  34. Color primaries                          : BT.2020
  35. Transfer characteristics                 : PQ
  36. Matrix coefficients                      : BT.2020 non-constant
  37. Mastering display color primaries        : Display P3
  38. Mastering display luminance              : min: 0.0050 cd/m2, max: 1000 cd/m2
  39. Maximum Content Light Level              : 811 cd/m2
  40. Maximum Frame-Average Light Level        : 117 cd/m2
  41.  
  42. Audio #1
  43. ID                                       : 2
  44. Format                                   : E-AC-3
  45. Format/Info                              : Enhanced AC-3
  46. Commercial name                          : Dolby Digital Plus
  47. Codec ID                                 : A_EAC3
  48. Duration                                 : 1 h 55 min
  49. Bit rate mode                            : Constant
  50. Bit rate                                 : 640 kb/s
  51. Channel(s)                               : 6 channels
  52. Channel layout                           : L R C LFE Ls Rs
  53. Sampling rate                            : 48.0 kHz
  54. Frame rate                               : 31.250 FPS (1536 SPF)
  55. Compression mode                         : Lossy
  56. Stream size                              : 531 MiB (3%)
  57. Title                                    : Hindi
  58. Language                                 : Hindi
  59. Service kind                             : Complete Main
  60. Default                                  : Yes
  61. Forced                                   : No
  62.  
  63. Audio #2
  64. ID                                       : 3
  65. Format                                   : DTS XLL
  66. Format/Info                              : Digital Theater Systems
  67. Commercial name                          : DTS-HD Master Audio
  68. Codec ID                                 : A_DTS
  69. Duration                                 : 1 h 55 min
  70. Bit rate mode                            : Variable
  71. Bit rate                                 : 3 374 kb/s
  72. Channel(s)                               : 6 channels
  73. Channel layout                           : C L R Ls Rs LFE
  74. Sampling rate                            : 48.0 kHz
  75. Frame rate                               : 93.750 FPS (512 SPF)
  76. Bit depth                                : 24 bits
  77. Compression mode                         : Lossless
  78. Delay relative to video                  : 24 s 361 ms
  79. Stream size                              : 2.72 GiB (18%)
  80. Title                                    : English
  81. Language                                 : English
  82. Default                                  : No
  83. Forced                                   : No
  84.  
  85. Text
  86. ID                                       : 4
  87. Format                                   : UTF-8
  88. Codec ID                                 : S_TEXT/UTF8
  89. Codec ID/Info                            : UTF-8 Plain Text
  90. Duration                                 : 1 h 54 min
  91. Bit rate                                 : 47 b/s
  92. Frame rate                               : 0.225 FPS
  93. Count of elements                        : 1553
  94. Stream size                              : 40.0 KiB (0%)
  95. Title                                    : English [PGS]
  96. Language                                 : English
  97. Default                                  : Yes
  98. Forced                                   : No