The text below is selected, press Ctrl+C to copy to your clipboard. (⌘+C on Mac) No line numbers will be copied.
Brazen (2022) 1080p

14th January 2022 07:05:36 AM | Views: 7
  1. Format                                   : Matroska
  2. Format version                           : Version 4
  3. File size                                : 2.43 GiB
  4. Duration                                 : 1 h 36 min
  5. Overall bit rate                         : 3 611 kb/s
  6. Movie name                               : Brazen (2022) 1080p WEB-DL x264 Dual Audio [Hindi DDP5.1 + English DDP5.1 Atmos] ESub 2.42GB [www.MoviezAddiction.art]
  7. Encoded date                             : UTC 2022-01-14 01:38:32
  8. Writing application                      : mkvmerge v47.0.0 ('Black Flag') 64-bit
  9. Writing library                          : libebml v1.3.10 + libmatroska v1.5.2
  10.  
  11. Video
  12. ID                                       : 1
  13. Format                                   : AVC
  14. Format/Info                              : Advanced Video Codec
  15. Format profile                           : [email protected]
  16. Format settings                          : CABAC / 5 Ref Frames
  17. Format settings, CABAC                   : Yes
  18. Format settings, Reference frames        : 5 frames
  19. Codec ID                                 : V_MPEG4/ISO/AVC
  20. Duration                                 : 1 h 36 min
  21. Bit rate                                 : 2 200 kb/s
  22. Width                                    : 1 920 pixels
  23. Height                                   : 804 pixels
  24. Display aspect ratio                     : 2.40:1
  25. Frame rate mode                          : Variable
  26. Frame rate                               : 24.000 FPS
  27. Color space                              : YUV
  28. Chroma subsampling                       : 4:2:0
  29. Bit depth                                : 8 bits
  30. Scan type                                : Progressive
  31. Bits/(Pixel*Frame)                       : 0.059
  32. Stream size                              : 1.48 GiB (61%)
  33. Title                                    : [www.MoviezAddiction.art]
  34. Default                                  : Yes
  35. Forced                                   : No
  36.  
  37. Audio #1
  38. ID                                       : 2
  39. Format                                   : E-AC-3
  40. Format/Info                              : Enhanced AC-3
  41. Commercial name                          : Dolby Digital Plus
  42. Codec ID                                 : A_EAC3
  43. Duration                                 : 1 h 36 min
  44. Bit rate mode                            : Constant
  45. Bit rate                                 : 640 kb/s
  46. Channel(s)                               : 6 channels
  47. Channel layout                           : L R C LFE Ls Rs
  48. Sampling rate                            : 48.0 kHz
  49. Frame rate                               : 31.250 FPS (1536 SPF)
  50. Compression mode                         : Lossy
  51. Stream size                              : 441 MiB (18%)
  52. Title                                    : [www.MoviezAddiction.art] - Hindi
  53. Language                                 : Hindi
  54. Service kind                             : Complete Main
  55. Default                                  : Yes
  56. Forced                                   : No
  57.  
  58. Audio #2
  59. ID                                       : 3
  60. Format                                   : E-AC-3 JOC
  61. Format/Info                              : Enhanced AC-3 with Joint Object Coding
  62. Commercial name                          : Dolby Digital Plus with Dolby Atmos
  63. Codec ID                                 : A_EAC3
  64. Duration                                 : 1 h 36 min
  65. Bit rate mode                            : Constant
  66. Bit rate                                 : 768 kb/s
  67. Channel(s)                               : 6 channels
  68. Channel layout                           : L R C LFE Ls Rs
  69. Sampling rate                            : 48.0 kHz
  70. Frame rate                               : 31.250 FPS (1536 SPF)
  71. Compression mode                         : Lossy
  72. Stream size                              : 529 MiB (21%)
  73. Title                                    : [www.MoviezAddiction.art] - English
  74. Language                                 : English
  75. Service kind                             : Complete Main
  76. Default                                  : No
  77. Forced                                   : No
  78. Complexity index                         : 16
  79. Number of dynamic objects                : 15
  80. Bed channel count                        : 1 channel
  81. Bed channel configuration                : LFE
  82.  
  83. Text
  84. ID                                       : 4
  85. Format                                   : UTF-8
  86. Codec ID                                 : S_TEXT/UTF8
  87. Codec ID/Info                            : UTF-8 Plain Text
  88. Duration                                 : 1 h 31 min
  89. Bit rate                                 : 86 b/s
  90. Count of elements                        : 1303
  91. Stream size                              : 57.6 KiB (0%)
  92. Title                                    : [www.MoviezAddiction.art] - English [SRT]
  93. Language                                 : English
  94. Default                                  : Yes
  95. Forced                                   : No