The text below is selected, press Ctrl+C to copy to your clipboard. (⌘+C on Mac) No line numbers will be copied.
Extraordinary Attorney Woo (2022) S01E01...

14th November 2022 04:44:23 PM | Views: 37
  1. Format                                   : Matroska
  2. Format version                           : Version 4
  3. File size                                : 1.48 GiB
  4. Duration                                 : 1 h 17 min
  5. Overall bit rate mode                    : Variable
  6. Overall bit rate                         : 2 723 kb/s
  7. Movie name                               : Extraordinary Attorney Woo (2022) S01E01 [Extraordinary Attorney Woo] 1080p NF WEB-DL x264 Dual Audio [Hindi DDP2.0 + English DDP2.0] ESub 1.48GB [MoviezAddiction.life]
  8. Encoded date                             : UTC 2022-11-07 00:08:43
  9. Writing application                      : mkvmerge v71.1.0 ('Fortitude') 64-bit
  10. Writing library                          : libebml v1.4.4 + libmatroska v1.7.1
  11.  
  12. Video
  13. ID                                       : 1
  14. Format                                   : AVC
  15. Format/Info                              : Advanced Video Codec
  16. Format profile                           : [email protected]
  17. Format settings                          : CABAC / 3 Ref Frames
  18. Format settings, CABAC                   : Yes
  19. Format settings, Reference frames        : 3 frames
  20. Codec ID                                 : V_MPEG4/ISO/AVC
  21. Duration                                 : 1 h 17 min
  22. Bit rate mode                            : Variable
  23. Bit rate                                 : 2 465 kb/s
  24. Nominal bit rate                         : 2 973 kb/s
  25. Maximum bit rate                         : 4 740 kb/s
  26. Width                                    : 1 920 pixels
  27. Height                                   : 1 080 pixels
  28. Display aspect ratio                     : 16:9
  29. Frame rate mode                          : Constant
  30. Frame rate                               : 23.976 (24000/1001) FPS
  31. Color space                              : YUV
  32. Chroma subsampling                       : 4:2:0
  33. Bit depth                                : 8 bits
  34. Scan type                                : Progressive
  35. Bits/(Pixel*Frame)                       : 0.050
  36. Stream size                              : 1.34 GiB (91%)
  37. Default                                  : Yes
  38. Forced                                   : No
  39.  
  40. Audio #1
  41. ID                                       : 2
  42. Format                                   : E-AC-3
  43. Format/Info                              : Enhanced AC-3
  44. Commercial name                          : Dolby Digital Plus
  45. Codec ID                                 : A_EAC3
  46. Duration                                 : 1 h 17 min
  47. Bit rate mode                            : Constant
  48. Bit rate                                 : 128 kb/s
  49. Channel(s)                               : 2 channels
  50. Channel layout                           : L R
  51. Sampling rate                            : 48.0 kHz
  52. Frame rate                               : 31.250 FPS (1536 SPF)
  53. Compression mode                         : Lossy
  54. Stream size                              : 71.3 MiB (5%)
  55. Title                                    : Hindi
  56. Language                                 : Hindi
  57. Service kind                             : Complete Main
  58. Default                                  : Yes
  59. Forced                                   : No
  60.  
  61. Audio #2
  62. ID                                       : 3
  63. Format                                   : E-AC-3
  64. Format/Info                              : Enhanced AC-3
  65. Commercial name                          : Dolby Digital Plus
  66. Codec ID                                 : A_EAC3
  67. Duration                                 : 1 h 17 min
  68. Bit rate mode                            : Constant
  69. Bit rate                                 : 128 kb/s
  70. Channel(s)                               : 2 channels
  71. Channel layout                           : L R
  72. Sampling rate                            : 48.0 kHz
  73. Frame rate                               : 31.250 FPS (1536 SPF)
  74. Compression mode                         : Lossy
  75. Stream size                              : 71.3 MiB (5%)
  76. Title                                    : English
  77. Language                                 : English
  78. Service kind                             : Complete Main
  79. Default                                  : No
  80. Forced                                   : No
  81.  
  82. Text
  83. ID                                       : 4
  84. Format                                   : UTF-8
  85. Codec ID                                 : S_TEXT/UTF8
  86. Codec ID/Info                            : UTF-8 Plain Text
  87. Duration                                 : 1 h 15 min
  88. Bit rate                                 : 66 b/s
  89. Frame rate                               : 0.248 FPS
  90. Count of elements                        : 1129
  91. Stream size                              : 36.9 KiB (0%)
  92. Title                                    : English [SRT]
  93. Language                                 : English
  94. Default                                  : Yes
  95. Forced                                   : No