The text below is selected, press Ctrl+C to copy to your clipboard. (⌘+C on Mac) No line numbers will be copied.
Sicario (2015) 1080p Bluray x264

14th September 2020 04:18:46 PM | Views: 24
  1. Format                                   : Matroska
  2. Format version                           : Version 4
  3. File size                                : 4.98 GiB
  4. Duration                                 : 2 h 1 min
  5. Overall bit rate                         : 5 881 kb/s
  6. Movie name                               : Sicario (2015) 1080p Bluray x264 Dual Audio [ Hindi DD2.0 + English BD5.1 ] ESubs [www.MoviezAddiction.space]
  7. Encoded date                             : UTC 2020-09-14 13:04:28
  8. Writing application                      : mkvmerge v48.0.0 ('Fortress Around Your Heart') 64-bit
  9. Writing library                          : libebml v1.4.0 + libmatroska v1.6.0
  10.  
  11. Video
  12. ID                                       : 1
  13. Format                                   : AVC
  14. Format/Info                              : Advanced Video Codec
  15. Format profile                           : [email protected]
  16. Format settings                          : CABAC / 5 Ref Frames
  17. Format settings, CABAC                   : Yes
  18. Format settings, Reference frames        : 5 frames
  19. Codec ID                                 : V_MPEG4/ISO/AVC
  20. Duration                                 : 2 h 1 min
  21. Bit rate                                 : 5 000 kb/s
  22. Width                                    : 1 920 pixels
  23. Height                                   : 800 pixels
  24. Display aspect ratio                     : 2.40:1
  25. Frame rate mode                          : Constant
  26. Frame rate                               : 23.976 (24000/1001) FPS
  27. Color space                              : YUV
  28. Chroma subsampling                       : 4:2:0
  29. Bit depth                                : 8 bits
  30. Scan type                                : Progressive
  31. Bits/(Pixel*Frame)                       : 0.136
  32. Stream size                              : 4.24 GiB (85%)
  33. Title                                    : [www.MoviezAddiction.space]
  34. Writing library                          : x264 core 157 r2969 d4099dd
  35. Encoding settings                        : cabac=1 / ref=5 / deblock=1:-1:-1 / analyse=0x1:0x111 / me=umh / subme=9 / psy=1 / psy_rd=1.00:0.15 / mixed_ref=1 / me_range=18 / chroma_me=1 / trellis=2 / 8x8dct=0 / cqm=0 / deadzone=21,11 / fast_pskip=1 / chroma_qp_offset=-3 / threads=18 / lookahead_threads=1 / sliced_threads=0 / nr=1000 / decimate=1 / interlaced=0 / bluray_compat=0 / constrained_intra=0 / bframes=3 / b_pyramid=2 / b_adapt=1 / b_bias=0 / direct=3 / weightb=1 / open_gop=0 / weightp=2 / keyint=240 / keyint_min=23 / scenecut=40 / intra_refresh=0 / rc_lookahead=50 / rc=2pass / mbtree=1 / bitrate=5000 / ratetol=1.0 / qcomp=0.60 / qpmin=0 / qpmax=69 / qpstep=4 / cplxblur=20.0 / qblur=0.5 / vbv_maxrate=50000 / vbv_bufsize=62500 / nal_hrd=none / filler=0 / ip_ratio=1.40 / aq=1:1.00
  36. Language                                 : English
  37. Default                                  : Yes
  38. Forced                                   : Yes
  39. Color range                              : Limited
  40. Color primaries                          : Generic film
  41. Transfer characteristics                 : BT.709
  42. Matrix coefficients                      : BT.709
  43.  
  44. Audio #1
  45. ID                                       : 2
  46. Format                                   : AC-3
  47. Format/Info                              : Audio Coding 3
  48. Commercial name                          : Dolby Digital
  49. Codec ID                                 : A_AC3
  50. Duration                                 : 2 h 1 min
  51. Bit rate mode                            : Constant
  52. Bit rate                                 : 224 kb/s
  53. Channel(s)                               : 2 channels
  54. Channel layout                           : L R
  55. Sampling rate                            : 48.0 kHz
  56. Frame rate                               : 31.250 FPS (1536 SPF)
  57. Compression mode                         : Lossy
  58. Delay relative to video                  : 1 s 0 ms
  59. Stream size                              : 194 MiB (4%)
  60. Title                                    : [www.MoviezAddiction.space]
  61. Language                                 : Hindi
  62. Service kind                             : Complete Main
  63. Default                                  : Yes
  64. Forced                                   : Yes
  65.  
  66. Audio #2
  67. ID                                       : 3
  68. Format                                   : AC-3
  69. Format/Info                              : Audio Coding 3
  70. Commercial name                          : Dolby Digital
  71. Codec ID                                 : A_AC3
  72. Duration                                 : 2 h 1 min
  73. Bit rate mode                            : Constant
  74. Bit rate                                 : 640 kb/s
  75. Channel(s)                               : 6 channels
  76. Channel layout                           : L R C LFE Ls Rs
  77. Sampling rate                            : 48.0 kHz
  78. Frame rate                               : 31.250 FPS (1536 SPF)
  79. Compression mode                         : Lossy
  80. Stream size                              : 555 MiB (11%)
  81. Title                                    : [www.MoviezAddiction.space]
  82. Language                                 : English
  83. Service kind                             : Complete Main
  84. Default                                  : No
  85. Forced                                   : No
  86.  
  87. Text #1
  88. ID                                       : 4
  89. Format                                   : PGS
  90. Muxing mode                              : zlib
  91. Codec ID                                 : S_HDMV/PGS
  92. Codec ID/Info                            : Picture based subtitle format used on BDs/HD-DVDs
  93. Duration                                 : 1 h 50 min
  94. Bit rate                                 : 23.9 kb/s
  95. Count of elements                        : 1882
  96. Stream size                              : 18.9 MiB (0%)
  97. Title                                    : [www.MoviezAddiction.space]
  98. Language                                 : English
  99. Default                                  : Yes
  100. Forced                                   : No
  101.  
  102. Text #2
  103. ID                                       : 5
  104. Format                                   : PGS
  105. Muxing mode                              : zlib
  106. Codec ID                                 : S_HDMV/PGS
  107. Codec ID/Info                            : Picture based subtitle format used on BDs/HD-DVDs
  108. Duration                                 : 1 h 53 min
  109. Bit rate                                 : 29.9 kb/s
  110. Count of elements                        : 2495
  111. Stream size                              : 24.3 MiB (0%)
  112. Title                                    : [www.MoviezAddiction.space]
  113. Language                                 : English
  114. Default                                  : No
  115. Forced                                   : No