The text below is selected, press Ctrl+C to copy to your clipboard. (⌘+C on Mac) No line numbers will be copied.
Logan Lucky (2017) 720p Bluray...

14th September 2020 06:48:10 AM | Views: 17
  1. Format                                   : Matroska
  2. Format version                           : Version 4
  3. File size                                : 1.31 GiB
  4. Duration                                 : 1 h 59 min
  5. Overall bit rate                         : 1 576 kb/s
  6. Movie name                               : Logan Lucky (2017) 720p Bluray x265 10bit HEVC Dual Audio [ Hindi HDTV2.0 + English DD5.1 ] ESubs [www.MoviezAddiction.space]
  7. Encoded date                             : UTC 2020-09-14 04:25:14
  8. Writing application                      : mkvmerge v48.0.0 ('Fortress Around Your Heart') 64-bit
  9. Writing library                          : libebml v1.4.0 + libmatroska v1.6.0
  10.  
  11. Video
  12. ID                                       : 3
  13. Format                                   : HEVC
  14. Format/Info                              : High Efficiency Video Coding
  15. Format profile                           : Main [email protected]@Main
  16. Codec ID                                 : V_MPEGH/ISO/HEVC
  17. Duration                                 : 1 h 59 min
  18. Bit rate                                 : 997 kb/s
  19. Width                                    : 1 280 pixels
  20. Height                                   : 536 pixels
  21. Display aspect ratio                     : 2.40:1
  22. Frame rate mode                          : Constant
  23. Frame rate                               : 23.976 (24000/1001) FPS
  24. Color space                              : YUV
  25. Chroma subsampling                       : 4:2:0
  26. Bit depth                                : 10 bits
  27. Bits/(Pixel*Frame)                       : 0.061
  28. Stream size                              : 849 MiB (63%)
  29. Title                                    : [www.MoviezAddiction.space]
  30. Default                                  : Yes
  31. Forced                                   : No
  32.  
  33. Audio #1
  34. ID                                       : 2
  35. Format                                   : AC-3
  36. Format/Info                              : Audio Coding 3
  37. Commercial name                          : Dolby Digital
  38. Codec ID                                 : A_AC3
  39. Duration                                 : 1 h 59 min
  40. Bit rate mode                            : Constant
  41. Bit rate                                 : 384 kb/s
  42. Channel(s)                               : 2 channels
  43. Channel layout                           : L R
  44. Sampling rate                            : 48.0 kHz
  45. Frame rate                               : 31.250 FPS (1536 SPF)
  46. Compression mode                         : Lossy
  47. Stream size                              : 327 MiB (24%)
  48. Title                                    : [www.MoviezAddiction.space]
  49. Language                                 : Hindi
  50. Service kind                             : Complete Main
  51. Default                                  : Yes
  52. Forced                                   : Yes
  53.  
  54. Audio #2
  55. ID                                       : 4
  56. Format                                   : AAC LC SBR
  57. Format/Info                              : Advanced Audio Codec Low Complexity with Spectral Band Replication
  58. Commercial name                          : HE-AAC
  59. Format settings                          : Explicit
  60. Codec ID                                 : A_AAC-2
  61. Duration                                 : 1 h 59 min
  62. Bit rate                                 : 185 kb/s
  63. Channel(s)                               : 6 channels
  64. Channel layout                           : C L R Ls Rs LFE
  65. Sampling rate                            : 48.0 kHz
  66. Frame rate                               : 23.438 FPS (2048 SPF)
  67. Compression mode                         : Lossy
  68. Delay relative to video                  : 23 ms
  69. Stream size                              : 157 MiB (12%)
  70. Title                                    : [www.MoviezAddiction.space]
  71. Language                                 : English
  72. Default                                  : No
  73. Forced                                   : No
  74.  
  75. Text #1
  76. ID                                       : 1
  77. Format                                   : VobSub
  78. Muxing mode                              : zlib
  79. Codec ID                                 : S_VOBSUB
  80. Codec ID/Info                            : Picture based subtitle format used on DVDs
  81. Duration                                 : 1 h 57 min
  82. Bit rate                                 : 12.9 kb/s
  83. Count of elements                        : 1752
  84. Stream size                              : 10.9 MiB (1%)
  85. Title                                    : [www.MoviezAddiction.space]
  86. Language                                 : English
  87. Default                                  : Yes
  88. Forced                                   : Yes
  89.  
  90. Text #2
  91. ID                                       : 5
  92. Format                                   : UTF-8
  93. Codec ID                                 : S_TEXT/UTF8
  94. Codec ID/Info                            : UTF-8 Plain Text
  95. Duration                                 : 1 h 54 min
  96. Bit rate                                 : 65 b/s
  97. Count of elements                        : 1654
  98. Stream size                              : 55.0 KiB (0%)
  99. Title                                    : [www.MoviezAddiction.space]
  100. Language                                 : English
  101. Default                                  : No
  102. Forced                                   : No
  103.  
  104. Menu
  105. 00:00:00.000                             : :Chapter 1
  106. 00:05:41.800                             : :Chapter 2
  107. 00:07:33.400                             : :Chapter 3
  108. 00:10:41.000                             : :Chapter 4
  109. 00:16:24.400                             : :Chapter 5
  110. 00:21:23.400                             : :Chapter 6
  111. 00:29:08.800                             : :Chapter 7
  112. 00:36:04.000                             : :Chapter 8
  113. 00:41:49.600                             : :Chapter 9
  114. 00:47:11.400                             : :Chapter 10
  115. 00:50:09.000                             : :Chapter 11
  116. 00:54:40.800                             : :Chapter 12
  117. 00:57:27.400                             : :Chapter 13
  118. 00:59:16.600                             : :Chapter 14
  119. 01:04:37.200                             : :Chapter 15
  120. 01:07:28.000                             : :Chapter 16
  121. 01:12:13.000                             : :Chapter 17
  122. 01:17:50.400                             : :Chapter 18
  123. 01:19:20.600                             : :Chapter 19
  124. 01:24:02.800                             : :Chapter 20
  125. 01:28:33.400                             : :Chapter 21
  126. 01:32:41.800                             : :Chapter 22
  127. 01:42:28.000                             : :Chapter 23
  128. 01:46:07.800                             : :Chapter 24
  129. 01:50:51.000                             : :Chapter 25
  130. 01:54:55.400                             : :Chapter 26